<?xml version="1.0" standalone="no"?>
<!DOCTYPE svg PUBLIC "-//W3C//DTD SVG 1.1//EN" "http://www.w3.org/Graphics/SVG/1.1/DTD/svg11.dtd">
<svg xmlns="http://www.w3.org/2000/svg">
<defs >
<font id="RedHatText" horiz-adv-x="530" ><font-face
    font-family="Red Hat Text SemiBold"
    units-per-em="1000"
    panose-1="2 1 3 3 4 2 1 6 3 3"
    ascent="1018"
    descent="-305"
    alphabetic="0" />
<glyph unicode=" " horiz-adv-x="225" />
<glyph unicode="!" horiz-adv-x="246" d="M81 215L67 727H179L165 215H81ZM123 -9Q94 -9 74 11T54 61Q54 90 74 110T123 131Q152 131 172 111T192 61Q192 32 172 12T123 -9Z" />
<glyph unicode="&quot;" horiz-adv-x="425" d="M85 489L71 750H178L165 489H85ZM262 489L248 750H355L342 489H262Z" />
<glyph unicode="#" horiz-adv-x="717" d="M61 0L130 203H44V287H159L202 413H91V497H231L301 700H399L330 497H489L559 700H657L587 497H674V413H559L515 287H626V203H486L417 0H319L388 203H229L159 0H61ZM257 287H417L460 413H301L257 287Z" />
<glyph unicode="$" horiz-adv-x="570" d="M252 -67V21Q194 26 138 45T34 97L85 182Q125 154 167 138T252 115V310L191 325Q116 346 80 387T43 493Q43 576 99 625T252 680V767H314V679Q367 673 417 654T510 603L461 520Q391 571 314 584V398L374 382Q453 360 490
320T527 217Q527 162 501 120T427 52T314 22V-67H252ZM252 412V587Q202 585 174 562T145 501Q145 470 165 451T233 418L252 412ZM314 115Q364 119 393 143T422 205Q422 237 403 255T332 290L314 296V115Z" />
<glyph unicode="%" horiz-adv-x="773" d="M179 345Q112 345 70 394T28 525Q28 607 70 656T179 705Q246 705 288 656T330 525Q330 444 288 395T179 345ZM179 407Q216 407 238 438T261 525Q261 581 239 612T179 644Q142 644 120 613T97 525Q97 469 119 438T179 407ZM144
0L539 700H623L227 0H144ZM594 -5Q527 -5 485 44T443 175Q443 257 485 306T594 355Q661 355 703 306T745 175Q745 94 703 45T594 -5ZM594 57Q631 57 653 88T676 175Q676 231 654 262T594 294Q557 294 535 263T512 175Q512 119 534 88T594 57Z" />
<glyph unicode="&amp;" horiz-adv-x="681" d="M270 -11Q199 -11 145 14T60 84T29 188Q29 252 61 296T172 384Q139 427 126 462T112 539Q112 589 136 627T202 688T298 711Q349 711 389 691T452 635T476 553Q476 506 451 468T372 398L321 367Q355 331 394 292T475
215Q496 251 511 293T535 384L635 368Q621 303 600 249T550 150Q578 126 606 104T659 63L590 -18Q565 2 538 23T484 67Q396 -11 270 -11ZM265 434L312 461Q343 480 357 501T372 550Q372 583 350 604T295 625Q260 625 238 602T215 541Q215 516 226 492T265 434ZM278
81Q316 81 349 93T411 132Q361 177 314 224T228 315Q194 296 174 278T144 241T135 195Q135 143 174 112T278 81Z" />
<glyph unicode="&apos;" horiz-adv-x="249" d="M85 489L71 750H178L165 489H85Z" />
<glyph unicode="(" horiz-adv-x="414" d="M312 -222Q233 -173 179 -103T97 55T69 245Q69 347 97 435T179 593T312 712L371 639Q275 577 223 476T171 245Q171 116 223 14T371 -150L312 -222Z" />
<glyph unicode=")" horiz-adv-x="414" d="M102 711Q181 662 235 592T317 434T345 244Q345 142 317 54T235 -104T102 -223L43 -150Q139 -88 191 13T243 244Q243 373 191 475T43 639L102 711Z" />
<glyph unicode="*" horiz-adv-x="472" d="M200 325L202 449L98 381L58 445L169 514L59 583L99 645L201 579L200 700H272L271 579L373 645L414 583L303 514L415 445L374 381L270 449L272 325H200Z" />
<glyph unicode="+" horiz-adv-x="600" d="M255 135V313H90V400H255V578H345V400H510V313H345V135H255Z" />
<glyph unicode="," horiz-adv-x="250" d="M23 -166L90 98H204L107 -166H23Z" />
<glyph unicode="-" horiz-adv-x="462" d="M56 236V332H405V236H56Z" />
<glyph unicode="." horiz-adv-x="250" d="M125 -9Q96 -9 76 12T55 63Q55 94 75 115T125 136Q154 136 174 115T195 63Q195 34 175 13T125 -9Z" />
<glyph unicode="/" horiz-adv-x="497" d="M-50 -209L350 700H460L59 -209H-50Z" />
<glyph unicode="0" horiz-adv-x="674" d="M337 -10Q252 -10 188 35T87 162T50 350Q50 458 86 539T187 665T337 711Q422 711 486 666T587 539T623 350Q623 244 587 163T487 36T337 -10ZM337 87Q391 87 430 119T492 211T514 350Q514 431 492 490T431 581T337 614Q283
614 244 582T182 490T159 350Q159 270 181 211T243 120T337 87Z" />
<glyph unicode="1" horiz-adv-x="342" d="M161 0V585L37 532V629L201 700H270V0H161Z" />
<glyph unicode="2" horiz-adv-x="570" d="M307 0V79L594 379Q620 406 634 428T655 470T662 513Q662 557 626 586T535 615Q487 615 445 596T353 530L291 605Q349 658 410 684T537 711Q606 711 658 687T739 619T768 519Q768 485 759 455T729 394T669 323L447 93L781
94V0H307Z" />
<glyph unicode="3" horiz-adv-x="607" d="M294 -11Q216 -11 149 16T35 94L108 164Q150 120 192 103T292 85Q338 85 372 99T426 140T445 201Q445 232 429 256T385 293T320 307H234V399H311Q362 399 392 427T423 503Q423 534 406 559T358 599T290 614Q237 614 198
596T116 531L42 600Q90 654 155 682T293 711Q363 711 417 686T501 617T532 515Q532 459 496 416T400 355Q470 340 512 297T555 194Q555 135 521 89T429 16T294 -11Z" />
<glyph unicode="4" horiz-adv-x="652" d="M419 0V173H34V263L403 700H531V268H624V173H531V0H419ZM164 268H419V572L164 268Z" />
<glyph unicode="5" horiz-adv-x="591" d="M537 -11Q395 -11 291 84L357 159Q402 119 445 101T541 83Q586 83 619 100T671 148T690 220Q690 279 648 315T538 352Q503 352 470 343T400 315L323 338L339 700H764V606H435L426 405Q464 424 498 430T569 437Q639 437
691 411T772 337T801 226Q801 155 768 102T676 19T537 -11Z" />
<glyph unicode="6" horiz-adv-x="633" d="M340 -10Q254 -10 189 33T87 153T50 332Q50 446 91 531T205 663T376 711Q427 711 477 695T562 651L502 570Q472 592 439 602T367 613Q302 613 256 580T185 485T159 333Q195 382 246 409T352 436Q421 436 474 409T557 333T587
221Q587 155 555 103T467 20T340 -10ZM335 350Q286 350 242 328T164 266Q173 211 196 170T256 107T336 84Q377 84 409 101T460 149T479 219Q479 257 461 286T410 333T335 350Z" />
<glyph unicode="7" horiz-adv-x="585" d="M365 0L692 604H290V700H810V617L494 0H365Z" />
<glyph unicode="8" horiz-adv-x="625" d="M313 -11Q237 -11 179 15T87 87T53 193Q53 233 72 267T125 327T203 364Q147 383 112 425T77 519Q77 574 108 617T192 686T313 711Q381 711 434 686T518 618T549 519Q549 467 514 425T423 364Q489 347 531 300T573 193Q573
134 540 88T448 15T313 -11ZM313 404Q350 404 379 418T425 457T442 513Q442 544 425 568T379 607T313 621Q276 621 247 607T201 569T184 513Q184 482 201 458T247 419T313 404ZM313 79Q357 79 390 94T443 138T463 199Q463 234 444 261T391 304T313 320Q270 320
236 305T183 262T163 200Q163 165 182 138T236 95T313 79Z" />
<glyph unicode="9" horiz-adv-x="633" d="M291 711Q377 711 442 668T544 547T581 369Q581 255 540 170T426 37T255 -10Q205 -10 155 6T69 50L129 130Q159 109 192 99T264 88Q329 88 375 121T446 217T472 367Q436 318 385 291T279 264Q210 264 157 292T74 368T44
480Q44 547 76 599T164 681T291 711ZM296 351Q345 351 389 373T467 435Q458 490 435 531T376 594T295 617Q254 617 222 600T171 552T152 482Q152 444 170 414T221 368T296 351Z" />
<glyph unicode=":" horiz-adv-x="250" d="M125 -9Q96 -9 76 12T55 63Q55 94 75 115T125 136Q154 136 174 115T195 63Q195 34 175 13T125 -9ZM125 366Q96 366 76 387T55 438Q55 469 75 490T125 511Q154 511 174 490T195 438Q195 409 175 388T125 366Z" />
<glyph unicode=";" horiz-adv-x="250" d="M134 366Q105 366 85 387T64 438Q64 469 84 490T134 511Q163 511 183 490T204 438Q204 409 184 388T134 366ZM272 -166L339 98H453L356 -166H272Z" />
<glyph unicode="&lt;" horiz-adv-x="600" d="M420 76L87 348L422 620L480 552L224 350L480 145L420 76Z" />
<glyph unicode="=" horiz-adv-x="600" d="M90 477V564H510V477H90ZM90 401V488H510V401H90Z" />
<glyph unicode="&gt;" horiz-adv-x="600" d="M180 620L513 348L178 76L120 144L376 346L120 551L180 620Z" />
<glyph unicode="?" horiz-adv-x="523" d="M188 217Q186 259 192 289T215 344T263 392L309 427Q343 453 357 475T372 523Q372 549 357 569T316 601T257 613Q213 613 176 590T114 525L27 568Q61 634 123 671T262 709Q324 709 373 686T450 621T479 528Q479 493 468
465T433 410T363 351L335 330Q304 307 292 282T281 217H188ZM236 -9Q207 -9 187 11T166 61Q166 91 186 111T236 131Q264 131 284 111T304 61Q304 32 284 12T236 -9Z" />
<glyph unicode="@" horiz-adv-x="792" d="M411 -144Q335 -144 270 -118T156 -44T81 68T54 207Q54 287 80 355T155 473T268 552T410 580Q480 580 539 557T644 493T714 396T739 274Q739 209 716 159T651 79T557 50Q486 50 459 91Q413 49 357 49Q317 49 285 69T235
124T216 202Q216 253 238 294T300 360T387 384Q413 384 436 375T478 350L483 371H564L524 170Q518 141 530 126T568 110Q599 110 623 130T661 187T675 270Q675 343 641 400T546 491T408 525Q346 525 293 501T201 435T139 335T117 212Q117 125 154 58T259 -47T412
-85Q457 -85 497 -76T574 -48L597 -100Q553 -122 507 -133T411 -144ZM376 116Q414 116 443 145Q443 153 443 162T446 181L464 277Q452 295 433 304T388 314Q363 314 342 300T307 262T294 209Q294 168 317 142T376 116Z" />
<glyph unicode="A" horiz-adv-x="697" d="M6 0L281 700H420L691 0H562L490 196H203L131 0H6ZM238 290H457L347 586L238 290Z" />
<glyph unicode="B" horiz-adv-x="696" d="M84 0V700H396Q461 700 511 677T589 613T617 516Q617 462 586 422T502 361Q566 342 603 299T640 195Q640 137 611 93T530 25T409 0H84ZM204 405H383Q435 405 465 432T496 504Q496 549 466 575T383 602H204V405ZM204 98H394Q451
98 485 127T519 206Q519 254 486 283T394 313H204V98Z" />
<glyph unicode="C" horiz-adv-x="723" d="M413 -11Q337 -11 271 16T156 93T79 208T51 350Q51 426 78 491T155 606T271 683T413 711Q467 711 517 696T610 654T686 586L606 508Q569 555 519 579T413 603Q362 603 319 584T243 531T192 450T174 350Q174 296 192 250T242
170T318 116T413 97Q469 97 519 121T606 192L686 114Q654 75 611 47T517 4T413 -11Z" />
<glyph unicode="D" horiz-adv-x="742" d="M204 104H343Q406 104 457 136T538 225T568 350Q568 420 538 475T457 563T343 596H204V104ZM84 0V700H340Q416 700 480 673T591 599T665 488T691 350Q691 276 665 213T592 102T480 27T340 0H84Z" />
<glyph unicode="E" horiz-adv-x="641" d="M84 0V700H585V598H204V403H470V303H204V102H589V0H84Z" />
<glyph unicode="F" horiz-adv-x="634" d="M84 0V700H587V598H204V398H468V298H204V0H84Z" />
<glyph unicode="G" horiz-adv-x="802" d="M411 -11Q335 -11 270 17T156 94T79 209T51 350Q51 425 78 490T155 605T269 683T410 711Q494 711 568 679T693 586L609 510Q573 556 521 579T410 603Q359 603 317 584T242 531T192 450T174 350Q174 296 192 250T242 169T318
116T413 96Q469 96 514 119T588 185T625 279H417V382H752V343Q752 267 727 203T655 91T547 16T411 -11Z" />
<glyph unicode="H" horiz-adv-x="746" d="M79 0V700H199V406H547V700H667V0H547V299H199V0H79Z" />
<glyph unicode="I" horiz-adv-x="278" d="M79 0V700H199V0H79Z" />
<glyph unicode="J" horiz-adv-x="632" d="M288 -11Q190 -11 121 40T22 184L132 225Q154 161 193 129T289 96Q358 96 400 144T442 271V700H562V269Q562 184 528 121T433 24T288 -11Z" />
<glyph unicode="K" horiz-adv-x="668" d="M84 0V700H204V381L508 700H655L321 363L667 0H508L204 327V0H84Z" />
<glyph unicode="L" horiz-adv-x="626" d="M84 0V700H204V104H577V0H84Z" />
<glyph unicode="M" horiz-adv-x="889" d="M84 0V700H240L445 275L649 700H805V0H692V548L444 50L195 551V0H84Z" />
<glyph unicode="N" horiz-adv-x="761" d="M84 0V700H201L566 191L564 700H677V0H570L195 523L197 0H84Z" />
<glyph unicode="O" horiz-adv-x="812" d="M406 -11Q332 -11 268 16T155 93T79 208T52 350Q52 426 79 491T154 606T267 683T406 711Q480 711 544 684T657 607T733 492T760 350Q760 274 733 209T658 94T545 17T406 -11ZM406 97Q455 97 497 116T570 169T619 250T637
350Q637 404 620 450T571 530T497 584T406 603Q357 603 315 584T242 531T192 450T174 350Q174 296 192 250T241 170T315 116T406 97Z" />
<glyph unicode="P" horiz-adv-x="679" d="M84 0V700H397Q468 700 520 673T602 596T631 482Q631 420 602 371T521 295T397 267H204V0H84ZM204 365H378Q442 365 476 397T510 483Q510 535 476 566T379 598H204V365Z" />
<glyph unicode="Q" horiz-adv-x="812" d="M621 -37L567 29Q531 10 491 0T406 -11Q332 -11 268 16T155 93T79 208T52 350Q52 426 79 491T154 606T267 683T406 711Q480 711 544 684T657 607T733 492T760 350Q760 273 732 206T652 89L730 -6L621 -37ZM406 97Q430
97 452 102T495 119L407 226L516 257L579 181Q606 214 621 257T637 350Q637 404 620 450T571 530T497 584T406 603Q357 603 315 584T242 531T192 450T174 350Q174 296 192 250T241 170T315 116T406 97Z" />
<glyph unicode="R" horiz-adv-x="672" d="M84 0V700H395Q464 700 517 673T599 599T629 488Q629 420 592 370T490 296L638 0H505L370 280H204V0H84ZM204 376H384Q440 376 474 406T508 487Q508 538 474 568T384 598H204V376Z" />
<glyph unicode="S" horiz-adv-x="637" d="M318 -11Q236 -11 164 17T24 102L89 190Q157 135 210 112T325 89Q371 89 406 103T461 142T481 200Q481 243 453 265T354 300L225 322Q134 338 90 383T45 500Q45 563 77 610T166 684T303 711Q382 711 453 688T584 621L523
531Q470 571 414 591T299 612Q257 612 226 599T177 563T159 512Q159 474 184 454T267 423L392 402Q498 383 548 336T599 209Q599 145 564 95T465 17T318 -11Z" />
<glyph unicode="T" horiz-adv-x="638" d="M259 0V596H25V700H613V596H379V0H259Z" />
<glyph unicode="U" horiz-adv-x="728" d="M364 -11Q275 -11 209 27T106 135T70 300V700H190V300Q190 238 211 193T272 123T364 98Q417 98 456 123T517 193T538 300V700H658V300Q658 205 623 135T521 27T364 -11Z" />
<glyph unicode="V" horiz-adv-x="697" d="M278 0L6 700H135L350 122L567 700H691L417 0H278Z" />
<glyph unicode="W" horiz-adv-x="936" d="M190 0L37 700H159L263 187L413 700H527L677 188L781 700H899L746 0H621L468 529L315 0H190Z" />
<glyph unicode="X" horiz-adv-x="700" d="M11 0L280 363L27 700H170L353 450L534 700H673L420 360L689 0H545L348 274L149 0H11Z" />
<glyph unicode="Y" horiz-adv-x="688" d="M284 0V276L6 700H145L347 380L551 700H682L404 276V0H284Z" />
<glyph unicode="Z" horiz-adv-x="613" d="M33 0V80L426 601L36 598V700H578V620L186 99L584 102V0H33Z" />
<glyph unicode="[" horiz-adv-x="389" d="M69 -215V700H338V610H173V-125H338V-215H69Z" />
<glyph unicode="\" horiz-adv-x="504" d="M439 -209L38 700H153L554 -209H439Z" />
<glyph unicode="]" horiz-adv-x="389" d="M320 700V-215H51V-125H216V610H51V700H320Z" />
<glyph unicode="^" horiz-adv-x="600" d="M77 350L253 700H347L523 350H430L300 611L170 350H77Z" />
<glyph unicode="_" horiz-adv-x="464" d="M-1 -161V-80H466V-161H-1Z" />
<glyph unicode="`" horiz-adv-x="600" d="M278 592L112 725H260L384 592H278Z" />
<glyph unicode="a" horiz-adv-x="550" d="M222 -9Q170 -9 130 10T67 64T44 144Q44 189 67 222T134 273T236 291Q271 291 305 284T371 259V315Q371 365 343 390T256 415Q225 415 190 406T110 376L70 458Q180 509 278 509Q376 509 429 462T483 327V0H371V52Q339
21 302 6T222 -9ZM150 146Q150 111 178 91T253 71Q287 71 316 81T371 113V194Q345 206 317 212T256 218Q207 218 179 199T150 146Z" />
<glyph unicode="b" horiz-adv-x="611" d="M70 0V714L183 733V434Q210 468 250 486T337 505Q401 505 452 471T533 379T564 250Q564 179 533 121T448 29T330 -5Q285 -5 247 13T181 64V0H70ZM303 90Q346 90 379 110T432 167T452 250Q452 296 433 332T380 389T303
410Q266 410 236 396T183 354V145Q205 119 236 105T303 90Z" />
<glyph unicode="c" horiz-adv-x="523" d="M300 -9Q229 -9 172 25T81 119T47 250Q47 323 80 381T171 474T300 509Q358 509 410 487T500 424L430 351Q404 380 372 395T304 410Q263 410 231 389T179 331T160 250Q160 205 179 169T230 111T304 90Q340 90 372 105T430
148L500 76Q463 35 411 13T300 -9Z" />
<glyph unicode="d" horiz-adv-x="610" d="M273 -5Q210 -5 159 29T78 121T47 250Q47 322 78 379T162 471T281 505Q324 505 361 489T427 440V717L540 737V0H428V66Q401 32 361 14T273 -5ZM308 91Q344 91 375 105T427 145V356Q405 382 374 396T308 410Q265 410 232
390T179 333T159 250Q159 205 178 169T231 112T308 91Z" />
<glyph unicode="e" horiz-adv-x="573" d="M303 -10Q231 -10 173 24T81 117T47 250Q47 324 79 382T166 474T290 509Q360 509 413 475T497 383T528 250V223H158Q164 182 184 151T237 101T308 83Q343 83 374 95T427 130L501 63Q455 25 408 8T303 -10ZM159 293H421Q415
329 397 357T351 401T290 417Q257 417 230 402T184 358T159 293Z" />
<glyph unicode="f" horiz-adv-x="411" d="M138 0V411H30V501H138V587Q138 668 182 711T311 755Q332 755 352 753T386 746V650Q367 654 354 655T326 657Q287 657 269 640T251 585V501H386V411H251V0H138Z" />
<glyph unicode="g" horiz-adv-x="609" d="M304 -219Q251 -219 199 -206T103 -170L142 -87Q187 -108 224 -118T299 -129Q362 -129 394 -101T427 -18V67Q400 34 360 16T273 -3Q210 -3 159 31T78 123T47 252Q47 323 78 380T162 471T281 505Q325 505 363 488T428 438V501H540V-18Q540
-115 479 -167T304 -219ZM308 91Q344 91 375 105T427 146V356Q405 382 374 396T308 410Q265 410 232 390T179 334T159 251Q159 206 178 170T231 112T308 91Z" />
<glyph unicode="h" horiz-adv-x="582" d="M70 0V717L183 737V419Q212 464 252 486T342 509Q393 509 432 487T493 424T516 330V0H402V298Q402 353 372 385T292 418Q258 418 231 403T183 357V0H70Z" />
<glyph unicode="i" horiz-adv-x="252" d="M69 0V501H182V0H69ZM126 603Q97 603 77 623T56 672Q56 701 76 721T126 742Q155 742 175 722T196 673Q196 644 176 624T126 603Z" />
<glyph unicode="j" horiz-adv-x="252" d="M127 603Q98 603 77 623T56 672Q56 701 77 721T127 742Q156 742 176 722T197 673Q197 644 177 624T127 603ZM35 -219Q18 -219 2 -217T-26 -211V-121Q-16 -123 -7 -124T14 -125Q43 -125 56 -112T70 -70V501H183V-75Q183
-143 145 -181T35 -219Z" />
<glyph unicode="k" horiz-adv-x="541" d="M70 0V719L183 738V288L391 501H521L290 269L533 0H389L183 231V0H70Z" />
<glyph unicode="l" horiz-adv-x="252" d="M70 0V717L183 737V0H70Z" />
<glyph unicode="m" horiz-adv-x="876" d="M70 0V501H183V422Q211 465 248 487T332 509Q383 509 421 483T479 413Q509 460 550 484T645 509Q694 509 731 486T788 422T809 328V0H696V303Q696 356 669 387T595 418Q565 418 540 403T495 358Q496 351 496 344T497 328V0H383V303Q383
356 356 387T282 418Q221 418 183 360V0H70Z" />
<glyph unicode="n" horiz-adv-x="582" d="M70 0V501H183V419Q212 464 252 486T342 509Q393 509 432 487T493 424T516 330V0H402V298Q402 353 372 385T292 418Q258 418 231 403T183 357V0H70Z" />
<glyph unicode="o" horiz-adv-x="597" d="M299 -9Q228 -9 171 25T80 117T47 250Q47 324 80 382T170 475T299 509Q371 509 427 475T517 383T550 250Q550 176 517 118T428 25T299 -9ZM299 87Q340 87 371 108T421 166T439 250Q439 297 421 333T372 391T299 413Q258
413 226 392T176 334T158 250Q158 203 176 166T226 108T299 87Z" />
<glyph unicode="p" horiz-adv-x="611" d="M70 -209V501H181V430Q209 466 249 485T337 505Q401 505 452 471T533 379T564 250Q564 179 533 121T448 29T330 -5Q285 -5 248 11T183 59V-209H70ZM303 90Q346 90 379 110T432 167T452 250Q452 296 433 332T380 389T303
410Q266 410 236 396T183 354V145Q205 119 236 105T303 90Z" />
<glyph unicode="q" horiz-adv-x="610" d="M427 -210V65Q400 32 360 14T273 -5Q210 -5 159 29T78 121T47 250Q47 322 78 379T162 471T281 505Q324 505 362 488T428 439V501H540V-210H427ZM308 91Q344 91 375 105T427 145V356Q405 382 374 396T308 410Q265 410 232
390T179 333T159 250Q159 205 178 169T231 112T308 91Z" />
<glyph unicode="r" horiz-adv-x="393" d="M70 0V501H183V393Q205 450 240 480T321 510Q336 509 347 508T370 500V401Q357 407 341 410T308 413Q267 413 235 391T183 330V0H70Z" />
<glyph unicode="s" horiz-adv-x="479" d="M240 -10Q176 -10 121 7T25 58L78 133Q128 102 164 89T239 76Q284 76 312 95T340 144Q340 167 324 180T270 201L182 216Q109 230 73 264T37 354Q37 401 61 435T129 489T231 509Q283 509 332 494T428 449L375 374Q337 399
300 410T224 422Q185 422 162 407T138 364Q138 340 153 328T208 309L297 292Q372 279 408 245T445 153Q445 107 418 70T345 12T240 -10Z" />
<glyph unicode="t" horiz-adv-x="414" d="M286 -10Q210 -10 171 25T132 130V411H32V501H132V639L245 663V501H385V411H245V155Q245 118 261 103T315 87Q332 87 346 89T383 99V4Q362 -3 336 -6T286 -10Z" />
<glyph unicode="u" horiz-adv-x="582" d="M241 -8Q189 -8 150 15T89 78T66 171V501H180V204Q180 149 209 116T290 83Q324 83 351 98T399 143V501H512V0H399V81Q370 37 330 15T241 -8Z" />
<glyph unicode="v" horiz-adv-x="542" d="M215 0L11 501H134L274 137L413 501H531L325 0H215Z" />
<glyph unicode="w" horiz-adv-x="737" d="M158 0L23 501H131L219 148L323 501H418L521 148L609 501H714L579 0H471L369 353L268 0H158Z" />
<glyph unicode="x" horiz-adv-x="534" d="M12 0L201 258L20 501H153L270 336L387 501H514L331 255L522 0H390L264 175L138 0H12Z" />
<glyph unicode="y" horiz-adv-x="537" d="M106 -219Q79 -219 50 -212V-114Q60 -116 71 -117T94 -118Q124 -118 143 -104T175 -61L198 -5L9 501H135L262 130L401 501H525L285 -87Q266 -135 242 -164T186 -206T106 -219Z" />
<glyph unicode="z" horiz-adv-x="482" d="M39 0V83L297 404L41 402V501H436V418L177 96L442 97V0H39Z" />
<glyph unicode="{" horiz-adv-x="422" d="M281 -219Q221 -219 182 -193T132 -119T141 -14L176 81Q196 133 177 167T109 202H34V289H109Q158 289 177 323T176 410L141 506Q120 565 131 611T182 684T281 711Q304 711 325 707T370 695L352 612Q337 617 323 620T293
623Q265 623 248 609T228 571T236 515L275 406Q289 370 282 337T251 280T187 246Q227 237 251 213T282 156T275 85L236 -23Q224 -54 227 -78T248 -116T293 -131Q308 -131 322 -128T352 -120L370 -203Q347 -211 326 -215T281 -219Z" />
<glyph unicode="|" horiz-adv-x="320" d="M109 -209V700H211V-209H109Z" />
<glyph unicode="}" horiz-adv-x="422" d="M141 711Q201 711 240 685T290 611T281 506L246 411Q226 359 245 325T313 290H388V203H313Q264 203 245 169T246 82L281 -14Q302 -73 291 -119T240 -192T141 -219Q118 -219 97 -215T52 -203L70 -120Q85 -125 99 -128T129
-131Q157 -131 174 -117T194 -79T186 -23L147 86Q133 122 140 155T171 212T235 246Q195 255 171 279T140 336T147 407L186 515Q198 546 195 570T174 608T129 623Q114 623 100 620T70 612L52 695Q75 703 96 707T141 711Z" />
<glyph unicode="~" horiz-adv-x="600" d="M126 291L47 300Q56 378 90 420T179 462Q200 462 222 456T269 435L350 394Q372 383 385 379T410 374Q464 374 475 457L553 448Q545 370 511 329T421 287Q400 287 378 293T331 312L250 354Q227 366 214 370T189 374Q136
374 126 291Z" />
<glyph unicode="&#xa0;" horiz-adv-x="225" />
<glyph unicode="&#xa1;" horiz-adv-x="246" d="M165 275L179 -237H67L81 275H165ZM123 499Q152 499 172 479T192 429Q192 400 172 380T123 359Q94 359 74 379T54 429Q54 458 74 478T123 499Z" />
<glyph unicode="&#xa2;" horiz-adv-x="523" d="M270 -114V-7Q207 0 156 35T76 127T47 250Q47 318 76 373T156 464T270 507V616H328V507Q379 502 423 481T500 424L430 351Q409 376 383 390T328 408V92Q357 96 383 110T430 148L500 76Q467 40 423 19T328 -7V-114H270ZM160
250Q160 211 174 179T213 125T270 94V406Q238 398 213 376T174 321T160 250Z" />
<glyph unicode="&#xa3;" horiz-adv-x="635" d="M465 -26Q449 -26 432 -24T396 -16L224 26Q214 29 204 30T186 31Q127 31 93 -36L8 18Q35 66 69 92T148 124Q170 142 170 174Q170 178 169 185T164 217T149 295H51V373H134Q128 405 125 425T121 459T119 484Q119 553
146 603T223 682T342 711Q436 711 496 666T581 531L482 501Q466 558 432 587T346 617Q287 617 257 584T226 489Q226 481 227 470T232 436T243 373H428V295H258Q264 257 267 238T271 209T272 194Q272 144 244 114L411 74Q422 72 432 71T452 69Q509 69 540 129L624
78Q566 -26 465 -26Z" />
<glyph unicode="&#xa4;" horiz-adv-x="685" d="M90 52L34 109L128 203Q104 236 91 277T77 362Q77 408 90 448T129 521L34 617L91 674L187 577Q219 601 259 614T342 627Q387 627 426 614T498 577L595 673L650 618L554 522Q579 489 593 449T607 362Q607 318 594
277T556 204L651 108L595 51L498 147Q466 124 427 111T342 97Q299 97 259 110T186 148L90 52ZM342 195Q387 195 423 217T480 278T501 362Q501 410 480 447T423 507T342 530Q298 530 262 508T205 448T184 362Q184 316 205 278T262 218T342 195Z" />
<glyph unicode="&#xa5;" horiz-adv-x="693" d="M284 0V132H114V198H284V263H114V330H249L6 700H145L347 380L551 700H682L439 330H572V263H404V198H572V132H404V0H284Z" />
<glyph unicode="&#xa6;" horiz-adv-x="324" d="M109 287V700H214V287H109ZM109 -209V204H214V-209H109Z" />
<glyph unicode="&#xa7;" horiz-adv-x="576" d="M281 -52Q183 -52 96 0L139 72Q180 48 215 36T281 24Q319 24 340 41T362 88Q362 111 348 126T300 154L198 190Q121 216 90 249T58 339Q58 385 83 418T155 468Q114 503 114 562Q114 629 164 670T296 711Q342 711 388
697T480 657L437 585Q397 610 362 622T295 634Q257 634 235 617T213 570Q213 547 228 531T276 504L377 468Q455 441 486 408T518 319Q518 273 492 239T421 189Q461 153 461 95Q461 29 412 -11T281 -52ZM347 232Q383 237 404 257T426 307Q426 333 409 351T353 383L241
420Q238 422 235 423T228 425Q192 420 171 401T150 350Q150 324 167 307T223 274L334 237Q337 236 340 235T347 232Z" />
<glyph unicode="&#xa8;" horiz-adv-x="600" d="M199 606Q172 606 153 625T134 671Q134 699 153 718T199 737Q227 737 246 718T265 671Q265 644 246 625T199 606ZM401 606Q373 606 354 625T335 671Q335 699 354 718T401 737Q429 737 447 718T466 671Q466 644 447
625T401 606Z" />
<glyph unicode="&#xa9;" horiz-adv-x="804" d="M410 163Q358 163 316 188T250 255T226 350Q226 404 250 446T316 514T410 539Q452 539 490 523T556 475L501 417Q482 439 460 449T413 460Q385 460 363 446T327 407T314 351Q314 320 327 296T363 257T414 242Q438
242 459 252T500 284L554 226Q526 196 489 180T410 163ZM402 -11Q328 -11 265 16T154 93T79 208T52 350Q52 426 79 491T154 606T265 683T402 711Q475 711 539 684T650 607T724 493T751 350Q751 274 725 208T651 93T539 17T402 -11ZM402 46Q463 46 515 69T606 134T668
231T691 350Q691 413 669 468T607 565T515 630T402 654Q342 654 290 631T198 566T136 469T114 350Q114 287 136 232T197 135T289 70T402 46Z" />
<glyph unicode="&#xaa;" horiz-adv-x="427" d="M173 309Q110 309 70 342T30 428Q30 483 72 514T189 545Q239 545 287 525V561Q287 634 201 634Q176 634 148 627T82 602L49 670Q95 692 135 701T215 711Q293 711 335 674T377 569V316H287V352Q237 309 173 309ZM195
376Q222 376 245 383T287 405V466Q268 476 246 480T198 484Q161 484 140 470T118 430Q118 405 139 391T195 376Z" />
<glyph unicode="&#xab;" horiz-adv-x="680" d="M265 0L37 251L265 501H378L156 253L381 0H265ZM519 0L291 251L519 501H632L410 253L635 0H519Z" />
<glyph unicode="&#xac;" horiz-adv-x="590" d="M442 0V245H62V332H532V0H442Z" />
<glyph unicode="&#xad;" horiz-adv-x="462" d="M56 236V332H405V236H56Z" />
<glyph unicode="&#xae;" horiz-adv-x="497" d="M248 308Q194 308 150 335T79 409T53 513Q53 570 79 616T149 690T248 718Q303 718 347 691T417 617T443 513Q443 456 417 410T347 336T248 308ZM248 349Q293 349 327 370T381 428T401 513Q401 561 382 598T328 656T247
677Q204 677 170 656T116 598T96 513Q96 466 115 429T169 371T248 349ZM181 420V608H259Q287 608 303 592T319 549Q319 514 287 497L330 420H286L249 488H222V420H181ZM251 575H222V519H251Q279 519 279 547Q279 575 251 575Z" />
<glyph unicode="&#xaf;" horiz-adv-x="600" d="M151 618V692H449V618H151Z" />
<glyph unicode="&#xb0;" horiz-adv-x="403" d="M202 418Q160 418 127 437T73 491T53 564Q53 605 73 638T126 691T202 711Q244 711 277 691T330 638T350 564Q350 525 331 491T278 438T202 418ZM202 481Q236 481 260 505T285 564Q285 599 261 623T202 648Q167 648
143 624T118 564Q118 530 142 506T202 481Z" />
<glyph unicode="&#xb1;" horiz-adv-x="600" d="M90 -1V86H510V-1H90ZM255 189V354H90V441H255V605H345V441H510V354H345V189H255Z" />
<glyph unicode="&#xb2;" horiz-adv-x="301" d="M30 350V402L173 536Q191 553 199 567T207 596Q207 616 191 630T149 644Q126 644 105 635T58 601L18 648Q48 676 81 690T151 705Q207 705 241 676T276 602Q276 575 263 553T220 502L122 410H280V350H30Z" />
<glyph unicode="&#xb3;" horiz-adv-x="323" d="M157 345Q77 345 21 393L63 443Q87 423 109 415T156 406Q187 406 206 419T225 452Q225 472 209 483T163 495H126V551H156Q183 551 199 564T215 598Q215 618 199 630T156 643Q133 643 113 635T69 606L25 653Q52 678
87 692T158 706Q215 706 250 679T286 606Q286 579 268 558T218 528Q253 520 274 500T296 448Q296 403 258 374T157 345Z" />
<glyph unicode="&#xb4;" horiz-adv-x="600" d="M219 592L343 725H484L318 592H219Z" />
<glyph unicode="&#xb5;" horiz-adv-x="585" d="M70 -209V501H183V203Q183 148 213 116T293 83Q328 83 355 98T402 143V501H516V0H402V79Q375 36 338 14T253 -8Q213 -8 183 12V-209H70Z" />
<glyph unicode="&#xb6;" horiz-adv-x="678" d="M313 0V266H272Q205 266 154 293T73 369T44 480Q44 547 72 596T152 672T271 700H598V0H506V266H406V0H313ZM406 358H506V607H406V358ZM268 358H313V607H268Q212 607 178 573T143 483Q143 426 177 392T268 358Z" />
<glyph unicode="&#xb7;" horiz-adv-x="250" d="M127 213Q98 213 77 234T56 286Q56 316 77 337T127 358Q156 358 176 337T197 286Q197 256 177 235T127 213Z" />
<glyph unicode="&#xb8;" horiz-adv-x="600" d="M300 -246Q262 -246 232 -236T179 -207L217 -164Q252 -192 295 -192Q323 -192 339 -180T355 -147Q355 -127 338 -116T290 -104H254L280 0H336L322 -62Q367 -65 394 -87T421 -145Q421 -188 387 -217T300 -246Z" />
<glyph unicode="&#xb9;" horiz-adv-x="184" d="M89 350V627L21 599V660L116 700H160V350H89Z" />
<glyph unicode="&#xba;" horiz-adv-x="476" d="M238 307Q181 307 135 334T61 407T33 509Q33 566 60 611T134 684T238 711Q295 711 341 684T415 612T442 509Q442 453 415 407T342 334T238 307ZM238 387Q270 387 296 403T337 447T352 509Q352 544 337 571T296 614T238
631Q206 631 180 615T139 571T124 509Q124 475 139 447T180 403T238 387Z" />
<glyph unicode="&#xbb;" horiz-adv-x="679" d="M414 501L642 250L414 0H301L523 248L298 501H414ZM161 501L389 250L161 0H48L270 248L45 501H161Z" />
<glyph unicode="&#xbc;" horiz-adv-x="642" d="M513 0V81H321V139L502 350H583V138H625V81H583V0H513ZM393 138H513V277L393 138ZM89 350V627L21 599V660L116 700H160V350H89ZM49 0L444 700H528L132 0H49Z" />
<glyph unicode="&#xbd;" horiz-adv-x="672" d="M89 350V627L21 599V660L116 700H160V350H89ZM49 0L444 700H528L132 0H49ZM401 0V52L544 186Q562 203 570 217T578 246Q578 266 562 280T520 294Q497 294 476 285T429 251L389 298Q419 326 452 340T522 355Q578 355
612 326T647 252Q647 225 634 203T591 152L493 60H651V0H401Z" />
<glyph unicode="&#xbe;" horiz-adv-x="736" d="M606 0V81H414V139L595 350H676V138H718V81H676V0H606ZM486 138H606V277L486 138ZM157 345Q77 345 21 393L63 443Q87 423 109 415T156 406Q187 406 206 419T225 452Q225 472 209 483T163 495H126V551H156Q183 551
199 564T215 598Q215 618 199 630T156 643Q133 643 113 635T69 606L25 653Q52 678 87 692T158 706Q215 706 250 679T286 606Q286 579 268 558T218 528Q253 520 274 500T296 448Q296 403 258 374T157 345ZM143 0L538 700H622L226 0H143Z" />
<glyph unicode="&#xbf;" horiz-adv-x="523" d="M335 273Q337 231 331 201T308 146T260 98L214 63Q180 37 166 15T151 -33Q151 -59 166 -79T207 -111T266 -123Q310 -123 347 -100T409 -35L496 -78Q462 -144 400 -181T261 -219Q199 -219 150 -196T73 -131T44 -38Q44
-3 55 25T90 80T160 139L188 160Q219 183 231 208T242 273H335ZM287 499Q316 499 336 479T357 429Q357 399 337 379T287 359Q259 359 239 379T219 429Q219 458 239 478T287 499Z" />
<glyph unicode="&#xc0;" horiz-adv-x="697" d="M6 0L281 700H420L691 0H562L490 196H203L131 0H6ZM238 290H457L347 586L238 290ZM324 791L158 924H306L430 791H324Z" />
<glyph unicode="&#xc1;" horiz-adv-x="697" d="M6 0L281 700H420L691 0H562L490 196H203L131 0H6ZM238 290H457L347 586L238 290ZM274 791L398 924H539L373 791H274Z" />
<glyph unicode="&#xc2;" horiz-adv-x="697" d="M6 0L281 700H420L691 0H562L490 196H203L131 0H6ZM238 290H457L347 586L238 290ZM437 787L349 871L261 787H173L293 925H407L527 787H437Z" />
<glyph unicode="&#xc3;" horiz-adv-x="697" d="M6 0L281 700H420L691 0H562L490 196H203L131 0H6ZM238 290H457L347 586L238 290ZM231 784L162 799Q178 859 206 889T275 920Q305 920 331 905T381 875T424 860Q440 860 449 874T469 925L538 910Q523 850 496 820T429
789Q401 789 374 804T324 834T281 849Q263 849 252 835T231 784Z" />
<glyph unicode="&#xc4;" horiz-adv-x="697" d="M6 0L281 700H420L691 0H562L490 196H203L131 0H6ZM238 290H457L347 586L238 290ZM249 805Q222 805 203 824T184 870Q184 898 203 917T249 936Q277 936 296 917T315 870Q315 843 296 824T249 805ZM451 805Q423 805
404 824T385 870Q385 898 404 917T451 936Q479 936 497 917T516 870Q516 843 497 824T451 805Z" />
<glyph unicode="&#xc5;" horiz-adv-x="697" d="M6 0L281 700H420L691 0H562L490 196H203L131 0H6ZM238 290H457L347 586L238 290ZM350 777Q317 777 290 793T247 835T231 894Q231 927 247 953T290 995T350 1011Q383 1011 410 995T453 953T469 894Q469 862 453 836T410
793T350 777ZM350 829Q377 829 396 848T415 894Q415 921 396 940T350 960Q323 960 304 941T285 894Q285 867 304 848T350 829Z" />
<glyph unicode="&#xc6;" horiz-adv-x="949" d="M6 0L281 700H897V595H467L537 404H772V302H574L648 105H897V0H561L489 196H203L131 0H6ZM237 290H456L347 586L237 290Z" />
<glyph unicode="&#xc7;" horiz-adv-x="723" d="M401 -246Q362 -246 332 -236T279 -207L317 -164Q352 -192 395 -192Q424 -192 439 -180T455 -147Q455 -127 438 -116T391 -104H355L378 -9Q308 -3 249 26T145 104T76 215T51 350Q51 426 78 491T155 606T271 683T413
711Q467 711 517 696T610 654T686 586L606 508Q569 555 519 579T413 603Q362 603 319 584T243 531T192 450T174 350Q174 296 192 250T242 170T318 116T413 97Q469 97 519 121T606 192L686 114Q642 59 576 27T435 -11L422 -62Q467 -65 494 -87T521 -145Q521 -188
487 -217T401 -246Z" />
<glyph unicode="&#xc8;" horiz-adv-x="641" d="M84 0V700H585V598H204V403H470V303H204V102H589V0H84ZM314 791L148 924H296L420 791H314Z" />
<glyph unicode="&#xc9;" horiz-adv-x="641" d="M84 0V700H585V598H204V403H470V303H204V102H589V0H84ZM264 791L388 924H529L363 791H264Z" />
<glyph unicode="&#xca;" horiz-adv-x="641" d="M84 0V700H585V598H204V403H470V303H204V102H589V0H84ZM427 787L339 871L251 787H163L283 925H397L517 787H427Z" />
<glyph unicode="&#xcb;" horiz-adv-x="641" d="M84 0V700H585V598H204V403H470V303H204V102H589V0H84ZM239 805Q212 805 193 824T174 870Q174 898 193 917T239 936Q267 936 286 917T305 870Q305 843 286 824T239 805ZM441 805Q413 805 394 824T375 870Q375 898
394 917T441 936Q469 936 487 917T506 870Q506 843 487 824T441 805Z" />
<glyph unicode="&#xcc;" horiz-adv-x="278" d="M79 0V700H199V0H79ZM112 791L-54 924H94L218 791H112Z" />
<glyph unicode="&#xcd;" horiz-adv-x="278" d="M79 0V700H199V0H79ZM62 791L186 924H327L161 791H62Z" />
<glyph unicode="&#xce;" horiz-adv-x="278" d="M79 0V700H199V0H79ZM226 787L138 871L50 787H-38L82 925H196L316 787H226Z" />
<glyph unicode="&#xcf;" horiz-adv-x="278" d="M79 0V700H199V0H79ZM38 805Q11 805 -8 824T-27 870Q-27 898 -8 917T38 936Q66 936 85 917T104 870Q104 843 85 824T38 805ZM240 805Q212 805 193 824T174 870Q174 898 193 917T240 936Q268 936 286 917T305 870Q305
843 286 824T240 805Z" />
<glyph unicode="&#xd0;" horiz-adv-x="771" d="M113 0V309H24V397H113V700H369Q444 700 508 673T620 599T693 488T720 350Q720 276 694 213T620 102T509 27T369 0H113ZM233 104H372Q435 104 485 136T566 225T596 350Q596 420 566 475T486 563T372 596H233V397H388V309H233V104Z"
/>
<glyph unicode="&#xd1;" horiz-adv-x="761" d="M84 0V700H201L566 191L564 700H677V0H570L195 523L197 0H84ZM260 784L191 799Q207 859 235 889T304 920Q334 920 360 905T410 875T453 860Q469 860 478 874T498 925L567 910Q552 850 525 820T458 789Q430 789 403
804T353 834T310 849Q292 849 281 835T260 784Z" />
<glyph unicode="&#xd2;" horiz-adv-x="812" d="M406 -11Q332 -11 268 16T155 93T79 208T52 350Q52 426 79 491T154 606T267 683T406 711Q480 711 544 684T657 607T733 492T760 350Q760 274 733 209T658 94T545 17T406 -11ZM406 97Q455 97 497 116T570 169T619
250T637 350Q637 404 620 450T571 530T497 584T406 603Q357 603 315 584T242 531T192 450T174 350Q174 296 192 250T241 170T315 116T406 97ZM379 791L213 924H361L485 791H379Z" />
<glyph unicode="&#xd3;" horiz-adv-x="812" d="M406 -11Q332 -11 268 16T155 93T79 208T52 350Q52 426 79 491T154 606T267 683T406 711Q480 711 544 684T657 607T733 492T760 350Q760 274 733 209T658 94T545 17T406 -11ZM406 97Q455 97 497 116T570 169T619
250T637 350Q637 404 620 450T571 530T497 584T406 603Q357 603 315 584T242 531T192 450T174 350Q174 296 192 250T241 170T315 116T406 97ZM329 791L453 924H594L428 791H329Z" />
<glyph unicode="&#xd4;" horiz-adv-x="812" d="M406 -11Q332 -11 268 16T155 93T79 208T52 350Q52 426 79 491T154 606T267 683T406 711Q480 711 544 684T657 607T733 492T760 350Q760 274 733 209T658 94T545 17T406 -11ZM406 97Q455 97 497 116T570 169T619
250T637 350Q637 404 620 450T571 530T497 584T406 603Q357 603 315 584T242 531T192 450T174 350Q174 296 192 250T241 170T315 116T406 97ZM492 787L404 871L316 787H228L348 925H462L582 787H492Z" />
<glyph unicode="&#xd5;" horiz-adv-x="812" d="M406 -11Q332 -11 268 16T155 93T79 208T52 350Q52 426 79 491T154 606T267 683T406 711Q480 711 544 684T657 607T733 492T760 350Q760 274 733 209T658 94T545 17T406 -11ZM406 97Q455 97 497 116T570 169T619
250T637 350Q637 404 620 450T571 530T497 584T406 603Q357 603 315 584T242 531T192 450T174 350Q174 296 192 250T241 170T315 116T406 97ZM286 784L217 799Q233 859 261 889T330 920Q360 920 386 905T436 875T479 860Q495 860 504 874T524 925L593 910Q578 850
551 820T484 789Q456 789 429 804T379 834T336 849Q318 849 307 835T286 784Z" />
<glyph unicode="&#xd6;" horiz-adv-x="812" d="M406 -11Q332 -11 268 16T155 93T79 208T52 350Q52 426 79 491T154 606T267 683T406 711Q480 711 544 684T657 607T733 492T760 350Q760 274 733 209T658 94T545 17T406 -11ZM406 97Q455 97 497 116T570 169T619
250T637 350Q637 404 620 450T571 530T497 584T406 603Q357 603 315 584T242 531T192 450T174 350Q174 296 192 250T241 170T315 116T406 97ZM304 805Q277 805 258 824T239 870Q239 898 258 917T304 936Q332 936 351 917T370 870Q370 843 351 824T304 805ZM506
805Q478 805 459 824T440 870Q440 898 459 917T506 936Q534 936 552 917T571 870Q571 843 552 824T506 805Z" />
<glyph unicode="&#xd7;" horiz-adv-x="600" d="M155 149L102 205L246 359L102 513L156 570L300 416L444 570L497 514L353 360L498 205L443 148L298 303L155 149Z" />
<glyph unicode="&#xd8;" horiz-adv-x="812" d="M406 -11Q350 -11 300 5T207 51L163 -3H59L147 102Q102 150 77 213T52 350Q52 426 79 491T154 606T267 683T406 711Q461 711 511 696T604 650L647 703H752L665 598Q709 550 734 487T760 350Q760 274 733 209T658
94T545 17T406 -11ZM224 194L532 565Q505 583 473 593T406 603Q357 603 315 584T242 531T192 450T174 350Q174 305 187 265T224 194ZM406 97Q455 97 497 116T571 169T619 250T637 350Q637 395 624 435T588 507L279 137Q307 118 338 108T406 97Z" />
<glyph unicode="&#xd9;" horiz-adv-x="728" d="M364 -11Q275 -11 209 27T106 135T70 300V700H190V300Q190 238 211 193T272 123T364 98Q417 98 456 123T517 193T538 300V700H658V300Q658 205 623 135T521 27T364 -11ZM336 791L170 924H318L442 791H336Z" />
<glyph unicode="&#xda;" horiz-adv-x="728" d="M364 -11Q275 -11 209 27T106 135T70 300V700H190V300Q190 238 211 193T272 123T364 98Q417 98 456 123T517 193T538 300V700H658V300Q658 205 623 135T521 27T364 -11ZM286 791L410 924H551L385 791H286Z" />
<glyph unicode="&#xdb;" horiz-adv-x="728" d="M364 -11Q275 -11 209 27T106 135T70 300V700H190V300Q190 238 211 193T272 123T364 98Q417 98 456 123T517 193T538 300V700H658V300Q658 205 623 135T521 27T364 -11ZM449 787L361 871L273 787H185L305 925H419L539
787H449Z" />
<glyph unicode="&#xdc;" horiz-adv-x="728" d="M364 -11Q275 -11 209 27T106 135T70 300V700H190V300Q190 238 211 193T272 123T364 98Q417 98 456 123T517 193T538 300V700H658V300Q658 205 623 135T521 27T364 -11ZM261 805Q234 805 215 824T196 870Q196 898
215 917T261 936Q289 936 308 917T327 870Q327 843 308 824T261 805ZM463 805Q435 805 416 824T397 870Q397 898 416 917T463 936Q491 936 509 917T528 870Q528 843 509 824T463 805Z" />
<glyph unicode="&#xdd;" horiz-adv-x="688" d="M284 0V276L6 700H145L347 380L551 700H682L404 276V0H284ZM268 791L392 924H533L367 791H268Z" />
<glyph unicode="&#xde;" horiz-adv-x="679" d="M84 0V700H204V567H397Q468 567 520 539T602 462T631 349Q631 286 602 238T521 161T397 133H204V0H84ZM204 232H378Q442 232 476 264T510 349Q510 402 476 434T379 466H204V232Z" />
<glyph unicode="&#xdf;" horiz-adv-x="626" d="M417 -11Q312 -11 238 52L291 123Q350 72 414 72Q454 72 478 92T502 146Q502 174 487 190T433 221L365 247Q331 260 309 276T277 314T267 362Q267 398 281 420T317 459T359 488T394 519T409 561Q409 597 378 620T297
644Q236 644 201 605T166 500V0H53V496Q53 569 82 623T166 707T294 737Q359 737 408 716T485 656T512 568Q512 531 499 506T464 463T423 432T388 405T374 373Q374 356 384 346T423 325L485 299Q549 273 578 238T607 150Q607 78 555 34T417 -11Z" />
<glyph unicode="&#xe0;" horiz-adv-x="550" d="M222 -9Q170 -9 130 10T67 64T44 144Q44 189 67 222T134 273T236 291Q271 291 305 284T371 259V315Q371 365 343 390T256 415Q225 415 190 406T110 376L70 458Q180 509 278 509Q376 509 429 462T483 327V0H371V52Q339
21 302 6T222 -9ZM150 146Q150 111 178 91T253 71Q287 71 316 81T371 113V194Q345 206 317 212T256 218Q207 218 179 199T150 146ZM507 592L341 725H489L613 592H507Z" />
<glyph unicode="&#xe1;" horiz-adv-x="550" d="M222 -9Q170 -9 130 10T67 64T44 144Q44 189 67 222T134 273T236 291Q271 291 305 284T371 259V315Q371 365 343 390T256 415Q225 415 190 406T110 376L70 458Q180 509 278 509Q376 509 429 462T483 327V0H371V52Q339
21 302 6T222 -9ZM150 146Q150 111 178 91T253 71Q287 71 316 81T371 113V194Q345 206 317 212T256 218Q207 218 179 199T150 146ZM457 592L581 725H722L556 592H457Z" />
<glyph unicode="&#xe2;" horiz-adv-x="550" d="M222 -9Q170 -9 130 10T67 64T44 144Q44 189 67 222T134 273T236 291Q271 291 305 284T371 259V315Q371 365 343 390T256 415Q225 415 190 406T110 376L70 458Q180 509 278 509Q376 509 429 462T483 327V0H371V52Q339
21 302 6T222 -9ZM150 146Q150 111 178 91T253 71Q287 71 316 81T371 113V194Q345 206 317 212T256 218Q207 218 179 199T150 146ZM621 588L533 672L445 588H357L477 726H591L711 588H621Z" />
<glyph unicode="&#xe3;" horiz-adv-x="550" d="M222 -9Q170 -9 130 10T67 64T44 144Q44 189 67 222T134 273T236 291Q271 291 305 284T371 259V315Q371 365 343 390T256 415Q225 415 190 406T110 376L70 458Q180 509 278 509Q376 509 429 462T483 327V0H371V52Q339
21 302 6T222 -9ZM150 146Q150 111 178 91T253 71Q287 71 316 81T371 113V194Q345 206 317 212T256 218Q207 218 179 199T150 146ZM415 585L346 600Q362 660 390 690T459 721Q489 721 515 706T565 676T608 661Q624 661 633 675T653 726L722 711Q707 651 680 621T613
590Q585 590 558 605T508 635T465 650Q447 650 436 636T415 585Z" />
<glyph unicode="&#xe4;" horiz-adv-x="550" d="M222 -9Q170 -9 130 10T67 64T44 144Q44 189 67 222T134 273T236 291Q271 291 305 284T371 259V315Q371 365 343 390T256 415Q225 415 190 406T110 376L70 458Q180 509 278 509Q376 509 429 462T483 327V0H371V52Q339
21 302 6T222 -9ZM150 146Q150 111 178 91T253 71Q287 71 316 81T371 113V194Q345 206 317 212T256 218Q207 218 179 199T150 146ZM433 606Q406 606 387 625T368 671Q368 699 387 718T433 737Q461 737 480 718T499 671Q499 644 480 625T433 606ZM635 606Q607 606
588 625T569 671Q569 699 588 718T635 737Q663 737 681 718T700 671Q700 644 681 625T635 606Z" />
<glyph unicode="&#xe5;" horiz-adv-x="550" d="M222 -9Q170 -9 130 10T67 64T44 144Q44 189 67 222T134 273T236 291Q271 291 305 284T371 259V315Q371 365 343 390T256 415Q225 415 190 406T110 376L70 458Q180 509 278 509Q376 509 429 462T483 327V0H371V52Q339
21 302 6T222 -9ZM150 146Q150 111 178 91T253 71Q287 71 316 81T371 113V194Q345 206 317 212T256 218Q207 218 179 199T150 146ZM534 578Q501 578 474 594T431 636T415 695Q415 728 431 754T474 796T534 812Q567 812 594 796T637 754T653 695Q653 663 637 637T594
594T534 578ZM534 630Q561 630 580 649T599 695Q599 722 580 741T534 761Q507 761 488 742T469 695Q469 668 488 649T534 630Z" />
<glyph unicode="&#xe6;" horiz-adv-x="898" d="M226 -9Q172 -9 132 10T69 65T46 146Q46 190 69 222T134 273T236 291Q306 291 371 260V315Q371 365 343 390T256 415Q225 415 190 406T110 376L70 458Q180 509 278 509Q337 509 379 489T444 431Q475 468 519 488T616
509Q685 509 738 475T822 383T853 250V223H483Q489 182 509 151T562 101T633 83Q668 83 699 95T752 130L825 63Q780 25 733 8T627 -10Q566 -10 516 15T429 84Q387 37 338 14T226 -9ZM484 293H746Q740 329 722 357T676 401T615 417Q581 417 554 402T509 358T484
293ZM252 71Q295 71 331 89T394 140Q383 165 377 193Q349 208 320 214T256 220Q207 220 179 201T150 147Q150 113 177 92T252 71Z" />
<glyph unicode="&#xe7;" horiz-adv-x="523" d="M293 -242Q254 -242 224 -233T172 -203L209 -160Q245 -188 287 -188Q316 -188 331 -177T347 -143Q347 -123 330 -112T283 -101H247L270 -7Q206 0 156 35T76 127T47 250Q47 323 80 381T171 474T300 509Q358 509 410
487T500 424L430 351Q404 380 372 395T304 410Q263 410 231 389T179 331T160 250Q160 205 179 169T230 111T304 90Q340 90 372 105T430 148L500 76Q467 40 422 19T326 -7L314 -59Q360 -61 386 -83T413 -141Q413 -184 379 -213T293 -242Z" />
<glyph unicode="&#xe8;" horiz-adv-x="573" d="M303 -10Q231 -10 173 24T81 117T47 250Q47 324 79 382T166 474T290 509Q360 509 413 475T497 383T528 250V223H158Q164 182 184 151T237 101T308 83Q343 83 374 95T427 130L501 63Q455 25 408 8T303 -10ZM159 293H421Q415
329 397 357T351 401T290 417Q257 417 230 402T184 358T159 293ZM522 592L356 725H504L628 592H522Z" />
<glyph unicode="&#xe9;" horiz-adv-x="573" d="M303 -10Q231 -10 173 24T81 117T47 250Q47 324 79 382T166 474T290 509Q360 509 413 475T497 383T528 250V223H158Q164 182 184 151T237 101T308 83Q343 83 374 95T427 130L501 63Q455 25 408 8T303 -10ZM159 293H421Q415
329 397 357T351 401T290 417Q257 417 230 402T184 358T159 293ZM472 592L596 725H737L571 592H472Z" />
<glyph unicode="&#xea;" horiz-adv-x="573" d="M303 -10Q231 -10 173 24T81 117T47 250Q47 324 79 382T166 474T290 509Q360 509 413 475T497 383T528 250V223H158Q164 182 184 151T237 101T308 83Q343 83 374 95T427 130L501 63Q455 25 408 8T303 -10ZM159 293H421Q415
329 397 357T351 401T290 417Q257 417 230 402T184 358T159 293ZM636 588L548 672L460 588H372L492 726H606L726 588H636Z" />
<glyph unicode="&#xeb;" horiz-adv-x="573" d="M303 -10Q231 -10 173 24T81 117T47 250Q47 324 79 382T166 474T290 509Q360 509 413 475T497 383T528 250V223H158Q164 182 184 151T237 101T308 83Q343 83 374 95T427 130L501 63Q455 25 408 8T303 -10ZM159 293H421Q415
329 397 357T351 401T290 417Q257 417 230 402T184 358T159 293ZM448 606Q421 606 402 625T383 671Q383 699 402 718T448 737Q476 737 495 718T514 671Q514 644 495 625T448 606ZM650 606Q622 606 603 625T584 671Q584 699 603 718T650 737Q678 737 696 718T715
671Q715 644 696 625T650 606Z" />
<glyph unicode="&#xec;" horiz-adv-x="252" d="M70 0V501H183V0H70ZM100 592L-66 725H82L206 592H100Z" />
<glyph unicode="&#xed;" horiz-adv-x="252" d="M70 0V501H183V0H70ZM50 592L174 725H315L149 592H50Z" />
<glyph unicode="&#xee;" horiz-adv-x="252" d="M70 0V501H183V0H70ZM213 588L125 672L37 588H-51L69 726H183L303 588H213Z" />
<glyph unicode="&#xef;" horiz-adv-x="252" d="M70 0V501H183V0H70ZM25 606Q-2 606 -21 625T-40 671Q-40 699 -21 718T25 737Q53 737 72 718T91 671Q91 644 72 625T25 606ZM227 606Q199 606 180 625T161 671Q161 699 180 718T227 737Q255 737 273 718T292 671Q292
644 273 625T227 606Z" />
<glyph unicode="&#xf0;" horiz-adv-x="593" d="M289 -10Q221 -10 166 23T79 112T47 236Q47 303 76 355T155 439T268 470Q324 470 369 445T436 379Q429 436 406 486T345 575L257 517L217 574L292 624Q271 640 247 653T195 675L249 752Q285 738 316 720T375 680L469
742L508 684L426 630Q484 567 514 483T544 298Q544 205 513 136T424 29T289 -10ZM293 88Q332 88 364 107T414 160T432 236Q432 278 414 311T364 364T293 384Q253 384 222 364T173 311T154 236Q154 195 172 161T222 108T293 88Z" />
<glyph unicode="&#xf1;" horiz-adv-x="582" d="M70 0V501H183V419Q212 464 252 486T342 509Q393 509 432 487T493 424T516 330V0H402V298Q402 353 372 385T292 418Q258 418 231 403T183 357V0H70ZM428 585L359 600Q375 660 403 690T472 721Q502 721 528 706T578
676T621 661Q637 661 646 675T666 726L735 711Q720 651 693 621T626 590Q598 590 571 605T521 635T478 650Q460 650 449 636T428 585Z" />
<glyph unicode="&#xf2;" horiz-adv-x="597" d="M299 -9Q228 -9 171 25T80 117T47 250Q47 324 80 382T170 475T299 509Q371 509 427 475T517 383T550 250Q550 176 517 118T428 25T299 -9ZM299 87Q340 87 371 108T421 166T439 250Q439 297 421 333T372 391T299 413Q258
413 226 392T176 334T158 250Q158 203 176 166T226 108T299 87ZM528 592L362 725H510L634 592H528Z" />
<glyph unicode="&#xf3;" horiz-adv-x="597" d="M299 -9Q228 -9 171 25T80 117T47 250Q47 324 80 382T170 475T299 509Q371 509 427 475T517 383T550 250Q550 176 517 118T428 25T299 -9ZM299 87Q340 87 371 108T421 166T439 250Q439 297 421 333T372 391T299 413Q258
413 226 392T176 334T158 250Q158 203 176 166T226 108T299 87ZM222 592L346 725H487L321 592H222Z" />
<glyph unicode="&#xf4;" horiz-adv-x="597" d="M299 -9Q228 -9 171 25T80 117T47 250Q47 324 80 382T170 475T299 509Q371 509 427 475T517 383T550 250Q550 176 517 118T428 25T299 -9ZM299 87Q340 87 371 108T421 166T439 250Q439 297 421 333T372 391T299 413Q258
413 226 392T176 334T158 250Q158 203 176 166T226 108T299 87ZM642 588L554 672L466 588H378L498 726H612L732 588H642Z" />
<glyph unicode="&#xf5;" horiz-adv-x="597" d="M299 -9Q228 -9 171 25T80 117T47 250Q47 324 80 382T170 475T299 509Q371 509 427 475T517 383T550 250Q550 176 517 118T428 25T299 -9ZM299 87Q340 87 371 108T421 166T439 250Q439 297 421 333T372 391T299 413Q258
413 226 392T176 334T158 250Q158 203 176 166T226 108T299 87ZM436 585L367 600Q383 660 411 690T480 721Q510 721 536 706T586 676T629 661Q645 661 654 675T674 726L743 711Q728 651 701 621T634 590Q606 590 579 605T529 635T486 650Q468 650 457 636T436 585Z"
/>
<glyph unicode="&#xf6;" horiz-adv-x="597" d="M299 -9Q228 -9 171 25T80 117T47 250Q47 324 80 382T170 475T299 509Q371 509 427 475T517 383T550 250Q550 176 517 118T428 25T299 -9ZM299 87Q340 87 371 108T421 166T439 250Q439 297 421 333T372 391T299 413Q258
413 226 392T176 334T158 250Q158 203 176 166T226 108T299 87ZM454 606Q427 606 408 625T389 671Q389 699 408 718T454 737Q482 737 501 718T520 671Q520 644 501 625T454 606ZM656 606Q628 606 609 625T590 671Q590 699 609 718T656 737Q684 737 702 718T721
671Q721 644 702 625T656 606Z" />
<glyph unicode="&#xf7;" horiz-adv-x="600" d="M300 493Q271 493 251 514T230 564Q230 593 250 613T300 634Q329 634 349 614T370 564Q370 535 350 514T300 493ZM300 82Q271 82 251 103T230 153Q230 182 250 203T300 224Q329 224 349 204T370 153Q370 124 350
103T300 82ZM90 315V402H510V315H90Z" />
<glyph unicode="&#xf8;" horiz-adv-x="597" d="M299 -9Q259 -9 223 2T156 34L128 0H48L110 74Q81 109 64 153T47 250Q47 324 80 382T170 475T299 509Q340 509 375 498T441 465L470 501H550L486 426Q516 392 533 347T550 250Q550 176 517 118T427 25T299 -9ZM182
158L375 388Q359 400 340 406T299 413Q258 413 226 392T176 334T158 250Q158 224 164 201T182 158ZM299 87Q340 87 371 108T421 166T439 250Q439 277 433 300T415 342L222 112Q238 100 257 94T299 87Z" />
<glyph unicode="&#xf9;" horiz-adv-x="582" d="M241 -8Q189 -8 150 15T89 78T66 171V501H180V204Q180 149 209 116T290 83Q324 83 351 98T399 143V501H512V0H399V81Q370 37 330 15T241 -8ZM516 592L350 725H498L622 592H516Z" />
<glyph unicode="&#xfa;" horiz-adv-x="582" d="M241 -8Q189 -8 150 15T89 78T66 171V501H180V204Q180 149 209 116T290 83Q324 83 351 98T399 143V501H512V0H399V81Q370 37 330 15T241 -8ZM466 592L590 725H731L565 592H466Z" />
<glyph unicode="&#xfb;" horiz-adv-x="582" d="M241 -8Q189 -8 150 15T89 78T66 171V501H180V204Q180 149 209 116T290 83Q324 83 351 98T399 143V501H512V0H399V81Q370 37 330 15T241 -8ZM630 588L542 672L454 588H366L486 726H600L720 588H630Z" />
<glyph unicode="&#xfc;" horiz-adv-x="582" d="M241 -8Q189 -8 150 15T89 78T66 171V501H180V204Q180 149 209 116T290 83Q324 83 351 98T399 143V501H512V0H399V81Q370 37 330 15T241 -8ZM442 606Q415 606 396 625T377 671Q377 699 396 718T442 737Q470 737 489
718T508 671Q508 644 489 625T442 606ZM644 606Q616 606 597 625T578 671Q578 699 597 718T644 737Q672 737 690 718T709 671Q709 644 690 625T644 606Z" />
<glyph unicode="&#xfd;" horiz-adv-x="537" d="M106 -219Q79 -219 50 -212V-114Q60 -116 71 -117T94 -118Q124 -118 143 -104T175 -61L198 -5L9 501H135L262 130L401 501H525L285 -87Q266 -135 242 -164T186 -206T106 -219ZM447 592L571 725H712L546 592H447Z" />
<glyph unicode="&#xfe;" horiz-adv-x="610" d="M70 -209V717L183 737V432Q210 466 250 485T337 505Q401 505 452 471T533 379T564 250Q564 179 533 121T448 29T330 -5Q285 -5 248 11T183 59V-209H70ZM303 410Q266 410 236 396T183 354V145Q205 119 236 105T303
90Q346 90 379 110T432 167T452 250Q452 296 433 332T380 389T303 410Z" />
<glyph unicode="&#xff;" horiz-adv-x="537" d="M106 -219Q79 -219 50 -212V-114Q60 -116 71 -117T94 -118Q124 -118 143 -104T175 -61L198 -5L9 501H135L262 130L401 501H525L285 -87Q266 -135 242 -164T186 -206T106 -219ZM423 606Q396 606 377 625T358 671Q358
699 377 718T423 737Q451 737 470 718T489 671Q489 644 470 625T423 606ZM625 606Q597 606 578 625T559 671Q559 699 578 718T625 737Q653 737 671 718T690 671Q690 644 671 625T625 606Z" />
<glyph unicode="&#x2013;" horiz-adv-x="557" d="M56 236V332H500V236H56Z" />
<glyph unicode="&#x2014;" horiz-adv-x="699" d="M56 236V332H642V236H56Z" />
<glyph unicode="&#x2018;" horiz-adv-x="261" d="M235 750L168 486H54L151 750H235Z" />
<glyph unicode="&#x2019;" horiz-adv-x="261" d="M41 486L108 750H222L125 486H41Z" />
<glyph unicode="&#x201a;" horiz-adv-x="254" d="M23 -166L90 98H204L107 -166H23Z" />
<glyph unicode="&#x201c;" horiz-adv-x="453" d="M235 750L168 486H54L151 750H235ZM426 750L359 486H245L342 750H426Z" />
<glyph unicode="&#x201d;" horiz-adv-x="453" d="M232 486L299 750H413L316 486H232ZM41 486L108 750H222L125 486H41Z" />
<glyph unicode="&#x201e;" horiz-adv-x="447" d="M216 -166L283 98H397L300 -166H216ZM23 -166L90 98H204L107 -166H23Z" />
<glyph unicode="&#x2022;" horiz-adv-x="358" d="M180 229Q135 229 103 261T71 339Q71 386 103 418T179 450Q224 450 255 419T287 339Q287 292 256 261T180 229Z" />
<glyph unicode="&#x2039;" horiz-adv-x="426" d="M265 0L37 251L265 501H378L156 253L381 0H265Z" />
<glyph unicode="&#x203a;" horiz-adv-x="426" d="M161 501L389 250L161 0H48L270 248L45 501H161Z" />
</font>
</defs>
</svg>
