<?xml version="1.0" standalone="no"?>
<!DOCTYPE svg PUBLIC "-//W3C//DTD SVG 1.1//EN" "http://www.w3.org/Graphics/SVG/1.1/DTD/svg11.dtd">
<svg xmlns="http://www.w3.org/2000/svg">
<defs >
<font id="RedHatText" horiz-adv-x="530" ><font-face
    font-family="Red Hat Text Light"
    units-per-em="1000"
    panose-1="2 1 3 3 4 2 1 6 3 3"
    ascent="1018"
    descent="-305"
    alphabetic="0" />
<glyph unicode=" " horiz-adv-x="238" />
<glyph unicode="!" horiz-adv-x="206" d="M82 199L76 710H130L124 199H82ZM103 -8Q84 -8 71 5T57 39Q57 58 70 71T103 85Q122 85 135 72T149 39Q149 19 136 6T103 -8Z" />
<glyph unicode="&quot;" horiz-adv-x="316" d="M78 554L69 750H123L114 554H78ZM202 554L193 750H247L238 554H202Z" />
<glyph unicode="#" horiz-adv-x="674" d="M69 0L147 228H44V271H162L216 429H92V472H231L309 700H356L278 472H481L559 700H606L528 472H630V429H513L459 271H582V228H444L366 0H319L397 228H194L116 0H69ZM209 271H412L466 429H263L209 271Z" />
<glyph unicode="$" horiz-adv-x="539" d="M252 -67V24Q197 27 145 47T51 101L76 139Q115 108 160 90T252 67V337L225 345Q137 371 98 411T59 514Q59 584 112 629T252 677V767H296V675Q343 670 387 650T475 595L449 558Q376 619 296 631V376L325 368Q414 342 453
302T492 195Q492 149 467 112T398 51T296 24V-67H252ZM252 386V634Q188 632 148 600T107 517Q107 470 136 441T236 391L252 386ZM296 67Q362 72 403 106T444 191Q444 243 415 273T316 322L296 327V67Z" />
<glyph unicode="%" horiz-adv-x="719" d="M173 345Q109 345 69 395T29 525Q29 605 69 655T173 705Q237 705 277 655T317 525Q317 445 277 395T173 345ZM173 381Q220 381 248 420T276 525Q276 591 248 630T173 669Q127 669 99 630T70 525Q70 459 98 420T173 381ZM142
0L537 700H582L187 0H142ZM548 -5Q484 -5 444 45T404 175Q404 255 444 305T548 355Q612 355 652 305T692 175Q692 95 652 45T548 -5ZM548 31Q595 31 623 70T651 175Q651 241 623 280T548 319Q502 319 474 280T445 175Q445 109 473 70T548 31Z" />
<glyph unicode="&amp;" horiz-adv-x="662" d="M262 -11Q193 -11 143 14T64 83T36 187Q36 248 71 296T199 391Q165 433 149 472T133 550Q133 595 153 631T209 689T292 711Q337 711 370 693T420 644T438 573Q438 522 409 483T321 409L272 379Q311 336 365 281T483
168Q509 209 527 260T555 368L605 360Q593 293 571 237T519 135Q551 107 584 80T651 26L620 -11Q588 14 555 40T490 95Q399 -11 262 -11ZM242 413L305 449Q349 475 368 506T388 572Q388 611 361 638T290 666Q243 666 213 634T183 551Q183 518 197 485T242 413ZM263
35Q319 35 368 59T454 127Q387 188 328 248T227 356Q170 326 140 299T99 245T88 187Q88 118 136 77T263 35Z" />
<glyph unicode="&apos;" horiz-adv-x="192" d="M78 554L69 750H123L114 554H78Z" />
<glyph unicode="(" horiz-adv-x="393" d="M312 -221Q246 -179 194 -115T110 39T79 247Q79 365 110 454T193 609T312 715L338 677Q235 615 183 501T131 247Q131 108 183 -6T338 -183L312 -221Z" />
<glyph unicode=")" horiz-adv-x="393" d="M81 727Q147 685 199 621T283 467T314 259Q314 141 283 52T200 -103T81 -209L55 -171Q158 -109 210 5T262 259Q262 398 210 512T55 689L81 727Z" />
<glyph unicode="*" horiz-adv-x="444" d="M202 350L204 496L87 420L64 454L187 531L70 604L91 637L204 564L202 700H242L240 565L351 637L375 604L257 530L379 453L357 420L240 496L242 350H202Z" />
<glyph unicode="+" horiz-adv-x="600" d="M277 151V334H109V379H277V561H322V379H490V334H322V151H277Z" />
<glyph unicode="," horiz-adv-x="250" d="M57 -152L113 60H170L98 -152H57Z" />
<glyph unicode="-" horiz-adv-x="452" d="M64 258V302H388V258H64Z" />
<glyph unicode="." horiz-adv-x="250" d="M125 -8Q106 -8 93 5T79 39Q79 58 92 71T125 85Q144 85 157 72T171 39Q171 19 158 6T125 -8Z" />
<glyph unicode="/" horiz-adv-x="448" d="M-47 -209L351 700H403L5 -209H-47Z" />
<glyph unicode="0" horiz-adv-x="652" d="M326 -11Q250 -11 190 34T96 160T61 350Q61 458 95 539T190 666T326 711Q403 711 462 666T556 540T591 350Q591 242 557 161T463 34T326 -11ZM326 35Q390 35 437 73T512 182T539 350Q539 448 512 518T438 627T326 665Q263
665 215 627T140 519T113 350Q113 253 140 182T215 73T326 35Z" />
<glyph unicode="1" horiz-adv-x="286" d="M149 0V641L43 593V643L169 700H199V0H149Z" />
<glyph unicode="2" horiz-adv-x="535" d="M307 0V39L578 347Q616 391 637 421T667 477T676 532Q676 590 632 628T519 666Q469 666 427 646T331 578L301 614Q354 663 407 687T519 711Q579 711 626 688T701 626T728 536Q728 499 719 470T686 406T616 320L373 45H744V0H307Z" />
<glyph unicode="3" horiz-adv-x="573" d="M531 -11Q462 -11 403 13T294 85L327 119Q373 75 422 55T530 34Q584 34 625 54T691 109T715 190Q715 232 694 265T636 318T550 338H469V383H551Q611 383 649 422T687 522Q687 562 666 594T608 646T525 666Q470 666 426
647T336 580L304 615Q351 662 406 686T525 711Q586 711 634 686T711 619T739 522Q739 468 706 426T616 363Q684 346 725 299T767 190Q767 132 737 87T653 15T531 -11Z" />
<glyph unicode="4" horiz-adv-x="600" d="M417 0V195H39V234L415 700H467V240H569V195H467V0H417ZM103 240H417V629L103 240Z" />
<glyph unicode="5" horiz-adv-x="558" d="M528 -11Q394 -11 295 86L328 119Q374 74 421 54T528 34Q582 34 623 57T687 121T710 218Q710 294 660 340T529 387Q487 387 447 378T362 345L327 357L343 700H725V655H389L377 394Q419 414 456 422T535 431Q603 431 654
405T733 331T762 220Q762 151 733 99T651 18T528 -11Z" />
<glyph unicode="6" horiz-adv-x="611" d="M328 -11Q250 -11 190 31T96 148T61 320Q61 438 99 526T207 662T370 711Q410 711 449 701T521 672L499 630Q468 646 433 656T366 666Q290 666 234 626T147 511T114 332Q155 382 211 410T325 438Q393 438 446 410T529 332T559
218Q559 152 529 100T447 19T328 -11ZM320 394Q263 394 209 364T115 282Q121 208 149 152T223 65T329 34Q380 34 420 58T484 123T507 216Q507 268 483 308T417 371T320 394Z" />
<glyph unicode="7" horiz-adv-x="542" d="M355 0L713 655H284V700H771V661L410 0H355Z" />
<glyph unicode="8" horiz-adv-x="608" d="M305 -11Q235 -11 180 14T93 85T61 187Q61 231 83 269T144 334T233 374Q169 391 130 434T90 535Q90 585 118 625T194 688T304 711Q366 711 414 688T491 625T519 535Q519 478 480 435T377 374Q454 356 500 306T547 187Q547
130 516 85T430 15T305 -11ZM304 397Q352 397 389 415T449 463T471 532Q471 570 449 600T390 649T304 667Q257 667 220 649T160 601T138 532Q138 494 160 464T219 415T304 397ZM304 34Q359 34 402 54T472 111T498 191Q498 236 472 271T403 327T304 348Q250 348
206 328T136 272T110 191Q110 147 136 111T206 55T304 34Z" />
<glyph unicode="9" horiz-adv-x="611" d="M283 711Q361 711 421 669T516 552T550 380Q550 262 512 174T404 38T241 -11Q201 -11 162 -1T90 28L112 70Q143 54 178 44T245 34Q322 34 377 74T464 189T497 368Q456 318 401 290T286 262Q218 262 165 290T82 369T52
482Q52 549 82 600T164 681T283 711ZM291 306Q348 306 402 336T496 418Q490 493 462 548T388 635T282 666Q231 666 191 642T127 577T104 484Q104 433 128 393T194 329T291 306Z" />
<glyph unicode=":" horiz-adv-x="250" d="M125 -8Q106 -8 93 5T79 39Q79 58 92 71T125 85Q144 85 157 72T171 39Q171 19 158 6T125 -8ZM125 402Q106 402 93 415T79 449Q79 468 92 481T125 495Q144 495 157 482T171 449Q171 429 158 416T125 402Z" />
<glyph unicode=";" horiz-adv-x="250" d="M125 402Q106 402 93 415T79 449Q79 468 92 481T125 495Q144 495 157 482T171 449Q171 429 158 416T125 402ZM57 -152L113 60H170L98 -152H57Z" />
<glyph unicode="&lt;" horiz-adv-x="600" d="M425 119L118 349L425 579L450 544L187 350L451 155L425 119Z" />
<glyph unicode="=" horiz-adv-x="600" d="M109 515V560H490V515H109ZM109 411V456H490V411H109Z" />
<glyph unicode="&gt;" horiz-adv-x="600" d="M175 579L482 349L175 119L150 154L413 348L149 543L175 579Z" />
<glyph unicode="?" horiz-adv-x="505" d="M196 201Q194 241 200 272T224 330T276 381L315 410Q357 442 377 470T397 539Q397 574 377 602T324 646T248 663Q199 663 157 639T77 568L39 603Q84 656 137 683T250 711Q306 711 350 689T421 628T447 539Q447 502 436
475T400 423T338 370L303 344Q264 316 251 281T242 201H196ZM219 -8Q202 -8 189 4T176 35Q176 54 189 66T219 78Q236 78 249 66T262 35Q262 16 249 4T219 -8Z" />
<glyph unicode="@" horiz-adv-x="763" d="M395 -144Q322 -144 261 -118T154 -44T83 68T57 207Q57 285 82 352T152 469T257 546T390 574Q458 574 515 551T616 486T682 388T706 266Q706 204 684 157T624 83T542 57Q481 57 456 99Q413 53 355 53Q316 53 285 72T236
126T218 203Q218 253 239 292T297 355T378 378Q407 378 432 367T476 336L481 365H524L488 176Q481 138 496 118T545 97Q578 97 605 119T648 179T664 266Q664 343 628 403T530 499T388 534Q328 534 276 509T184 440T122 336T99 208Q99 119 138 48T245 -63T399 -104Q443
-104 484 -92T561 -59L577 -98Q537 -120 491 -132T395 -144ZM363 91Q410 91 445 131Q443 142 443 153T446 178L467 291Q454 314 429 326T375 339Q344 339 319 321T278 273T262 205Q262 155 290 123T363 91Z" />
<glyph unicode="A" horiz-adv-x="639" d="M11 0L287 700H352L628 0H574L483 234H155L65 0H11ZM172 276H467L319 656L172 276Z" />
<glyph unicode="B" horiz-adv-x="653" d="M92 0V700H358Q423 700 468 678T538 617T563 525Q563 464 528 422T428 365Q507 352 549 307T592 194Q592 137 565 93T488 25T368 0H92ZM144 388H353Q429 388 470 424T512 520Q512 579 471 616T356 653H144V388ZM144 47H364Q445
47 492 88T540 195Q540 261 493 301T361 342H144V47Z" />
<glyph unicode="C" horiz-adv-x="728" d="M406 -11Q333 -11 271 16T161 93T87 208T60 350Q60 426 86 491T160 606T270 683T406 711Q458 711 505 699T595 662T670 602L636 563Q596 610 535 636T406 663Q343 663 290 639T196 573T134 473T112 350Q112 284 134 227T196
128T289 61T406 37Q474 37 535 64T636 137L670 98Q637 62 595 38T506 2T406 -11Z" />
<glyph unicode="D" horiz-adv-x="720" d="M144 47H316Q399 47 465 86T569 195T608 350Q608 437 570 505T465 613T316 653H144V47ZM92 0V700H310Q388 700 452 674T563 600T635 489T660 350Q660 275 635 211T564 100T453 27T310 0H92Z" />
<glyph unicode="E" horiz-adv-x="606" d="M92 0V700H556V653H144V377H429V330H144V47H560V0H92Z" />
<glyph unicode="F" horiz-adv-x="596" d="M92 0V700H555V653H144V372H424V325H144V0H92Z" />
<glyph unicode="G" horiz-adv-x="797" d="M406 -11Q333 -11 271 16T161 93T87 208T60 350Q60 426 86 491T160 606T270 683T406 711Q486 711 556 684T678 602L644 563Q604 610 540 636T406 663Q343 663 290 639T196 573T134 473T112 350Q112 284 134 227T196 128T289
61T406 37Q485 37 547 72T646 169T688 309H437V356H739V330Q739 259 714 197T645 89T539 16T406 -11Z" />
<glyph unicode="H" horiz-adv-x="721" d="M92 0V700H144V376H577V700H629V0H577V329H144V0H92Z" />
<glyph unicode="I" horiz-adv-x="236" d="M92 0V700H144V0H92Z" />
<glyph unicode="J" horiz-adv-x="582" d="M254 -11Q171 -11 108 34T16 158L62 179Q89 110 137 74T255 37Q345 37 398 97T452 261V700H504V261Q504 177 474 116T387 22T254 -11Z" />
<glyph unicode="K" horiz-adv-x="576" d="M92 0V700H144V361L501 700H574L203 352L580 0H501L144 339V0H92Z" />
<glyph unicode="L" horiz-adv-x="596" d="M92 0V700H144V47H551V0H92Z" />
<glyph unicode="M" horiz-adv-x="843" d="M92 0V700H170L422 165L673 700H751V0H702V653L422 50L141 653V0H92Z" />
<glyph unicode="N" horiz-adv-x="726" d="M92 0V700H150L585 83V700H634V0H586L141 631V0H92Z" />
<glyph unicode="O" horiz-adv-x="808" d="M404 -11Q332 -11 270 16T160 93T87 208T60 350Q60 426 86 491T160 606T269 683T404 711Q476 711 538 684T648 607T721 492T748 350Q748 274 722 209T648 94T539 17T404 -11ZM404 37Q466 37 519 61T612 127T674 227T696
350Q696 416 674 473T612 572T519 639T404 663Q342 663 289 639T196 573T134 473T112 350Q112 284 134 227T196 128T289 61T404 37Z" />
<glyph unicode="P" horiz-adv-x="639" d="M92 0V700H367Q434 700 482 675T557 605T584 499Q584 439 558 394T483 323T367 298H144V0H92ZM144 345H364Q444 345 488 387T532 499Q532 569 488 611T364 653H144V345Z" />
<glyph unicode="Q" horiz-adv-x="808" d="M656 -19L596 49Q556 21 507 5T404 -11Q332 -11 270 16T160 93T87 208T60 350Q60 426 86 491T160 606T269 683T404 711Q476 711 538 684T648 607T721 492T748 350Q748 268 717 199T633 79L712 -11L656 -19ZM404 37Q449
37 489 50T564 86L455 213L511 221L601 117Q645 159 670 219T696 350Q696 416 674 473T612 572T519 639T404 663Q342 663 289 639T196 573T134 473T112 350Q112 284 134 227T196 128T289 61T404 37Z" />
<glyph unicode="R" horiz-adv-x="632" d="M92 0V700H365Q435 700 483 674T556 604T582 503Q582 435 544 384T434 316L581 0H524L380 308H144V0H92ZM144 355H362Q444 355 487 397T530 503Q530 567 487 610T362 653H144V355Z" />
<glyph unicode="S" horiz-adv-x="614" d="M310 -11Q226 -11 157 21T30 114L65 150Q127 88 182 63T311 37Q370 37 416 58T490 115T517 196Q517 253 479 284T345 331L241 349Q144 366 98 406T52 516Q52 574 81 617T164 686T285 711Q356 711 422 690T558 621L529
577Q476 618 413 640T286 663Q234 663 193 645T128 594T104 520Q104 469 137 441T250 399L354 381Q467 362 518 318T569 195Q569 136 536 89T444 16T310 -11Z" />
<glyph unicode="T" horiz-adv-x="604" d="M276 0V653H30V700H574V653H328V0H276Z" />
<glyph unicode="U" horiz-adv-x="702" d="M351 -11Q270 -11 209 24T113 128T78 294V700H130V294Q130 212 158 155T237 67T351 37Q416 37 465 67T543 154T572 294V700H624V294Q624 197 590 129T494 25T351 -11Z" />
<glyph unicode="V" horiz-adv-x="639" d="M287 0L11 700H65L320 45L575 700H628L352 0H287Z" />
<glyph unicode="W" horiz-adv-x="874" d="M216 0L45 700H97L245 87L412 700H464L631 87L779 700H829L658 0H608L437 626L266 0H216Z" />
<glyph unicode="X" horiz-adv-x="627" d="M11 0L283 363L30 700H92L313 404L533 700H595L344 364L616 0H553L312 323L73 0H11Z" />
<glyph unicode="Y" horiz-adv-x="621" d="M284 0V291L15 700H76L312 336L548 700H606L336 289V0H284Z" />
<glyph unicode="Z" horiz-adv-x="600" d="M39 0V39L488 653H42V700H555V661L106 47H565V0H39Z" />
<glyph unicode="[" horiz-adv-x="345" d="M69 -215V700H294V657H119V-172H294V-215H69Z" />
<glyph unicode="\" horiz-adv-x="452" d="M445 -209L46 700H100L499 -209H445Z" />
<glyph unicode="]" horiz-adv-x="345" d="M276 700V-215H51V-172H226V657H51V700H276Z" />
<glyph unicode="^" horiz-adv-x="600" d="M99 350L277 700H323L501 350H450L300 646L150 350H99Z" />
<glyph unicode="_" horiz-adv-x="453" d="M-1 -124V-80H454V-124H-1Z" />
<glyph unicode="`" horiz-adv-x="600" d="M289 579L157 695H234L339 579H289Z" />
<glyph unicode="a" horiz-adv-x="512" d="M228 -10Q178 -10 138 8T75 60T52 138Q52 183 75 215T139 264T230 282Q276 282 315 272T386 239V314Q386 381 352 414T254 447Q219 447 184 437T106 403L86 444Q176 489 256 489Q341 489 388 447T435 323V0H386V59Q355
26 315 8T228 -10ZM101 139Q101 90 138 61T234 32Q281 32 318 49T386 98V198Q354 220 318 230T235 240Q177 240 139 213T101 139Z" />
<glyph unicode="b" horiz-adv-x="567" d="M78 0V725L128 737V414Q158 452 198 469T286 487Q350 487 401 454T481 365T511 240Q511 172 482 116T401 26T284 -8Q239 -8 199 9T127 63V0H78ZM278 38Q331 38 372 64T437 135T461 239Q461 298 437 343T371 415T278 441Q230
441 191 422T128 368V112Q152 78 191 58T278 38Z" />
<glyph unicode="c" horiz-adv-x="501" d="M291 -10Q225 -10 172 23T88 113T56 240Q56 310 87 366T172 456T291 489Q341 489 388 471T471 417L440 380Q412 409 373 426T293 443Q240 443 198 416T131 343T106 240Q106 184 130 138T197 64T293 36Q333 36 372 53T440
99L471 62Q435 28 388 9T291 -10Z" />
<glyph unicode="d" horiz-adv-x="567" d="M281 -8Q217 -8 166 25T86 114T56 239Q56 308 85 364T166 453T283 487Q327 487 367 470T439 417V725L489 737V0H439V65Q409 28 369 10T281 -8ZM289 38Q337 38 376 57T439 111V367Q415 401 376 421T289 441Q237 441 196
415T130 344T106 240Q106 182 130 136T196 64T289 38Z" />
<glyph unicode="e" horiz-adv-x="548" d="M290 -10Q224 -10 171 23T87 112T56 240Q56 311 86 367T166 456T278 489Q339 489 388 458T466 372T495 250V231H106Q108 175 133 131T199 61T292 36Q332 36 370 50T434 89L464 52Q424 21 382 6T290 -10ZM108 272H444Q440
321 417 359T358 420T278 443Q235 443 199 421T139 361T108 272Z" />
<glyph unicode="f" horiz-adv-x="346" d="M136 0V438H27V481H136V598Q136 664 169 700T267 737Q285 737 299 735T328 728V680Q311 686 298 688T269 691Q226 691 206 669T186 597V481H328V438H186V0H136Z" />
<glyph unicode="g" horiz-adv-x="566" d="M300 -219Q251 -219 203 -205T116 -167L142 -127Q185 -150 221 -161T297 -173Q365 -173 401 -140T438 -41V63Q408 27 368 10T281 -8Q217 -8 166 25T86 114T56 239Q56 308 85 364T166 453T283 487Q327 487 367 470T439
417V481H488V-39Q488 -127 439 -173T300 -219ZM289 38Q337 38 375 57T438 109V369Q414 401 375 421T289 441Q237 441 196 415T130 344T106 240Q106 182 130 136T196 64T289 38Z" />
<glyph unicode="h" horiz-adv-x="535" d="M78 0V725L128 737V404Q155 445 193 467T281 489Q334 489 374 466T436 402T459 307V0H409V293Q409 363 371 404T267 445Q224 445 188 424T128 361V0H78Z" />
<glyph unicode="i" horiz-adv-x="206" d="M78 0V481H128V0H78ZM103 608Q84 608 71 621T57 654Q57 673 70 686T103 700Q122 700 135 687T149 654Q149 635 136 622T103 608Z" />
<glyph unicode="j" horiz-adv-x="206" d="M103 608Q84 608 71 621T57 654Q57 673 70 686T103 700Q122 700 135 687T149 654Q149 635 136 622T103 608ZM20 -219Q10 -219 1 -218T-16 -215V-167Q-8 -169 0 -171T17 -173Q50 -173 64 -156T78 -102V481H128V-105Q128
-159 101 -189T20 -219Z" />
<glyph unicode="k" horiz-adv-x="459" d="M78 0V725L128 737V260L372 481H437L177 249L448 0H378L128 234V0H78Z" />
<glyph unicode="l" horiz-adv-x="206" d="M78 0V725L128 737V0H78Z" />
<glyph unicode="m" horiz-adv-x="828" d="M78 0V481H128V408Q154 447 189 468T271 489Q322 489 361 464T422 394Q450 441 490 465T584 489Q634 489 671 466T730 402T752 307V0H702V293Q702 363 667 404T570 445Q525 445 491 422T435 357Q437 345 438 333T440 307V0H390V293Q390
363 355 404T258 445Q173 445 128 365V0H78Z" />
<glyph unicode="n" horiz-adv-x="535" d="M78 0V481H128V404Q155 445 193 467T281 489Q334 489 374 466T436 402T459 307V0H409V293Q409 363 371 404T267 445Q224 445 188 424T128 361V0H78Z" />
<glyph unicode="o" horiz-adv-x="572" d="M286 -10Q221 -10 169 23T87 112T56 240Q56 311 86 367T169 456T286 489Q351 489 403 456T485 367T516 240Q516 169 486 113T403 23T286 -10ZM286 36Q338 36 378 62T442 135T466 240Q466 298 443 344T379 416T286 443Q235
443 194 417T130 344T106 240Q106 182 129 136T194 63T286 36Z" />
<glyph unicode="p" horiz-adv-x="567" d="M78 -209V481H127V413Q157 451 198 469T286 487Q350 487 401 454T481 365T511 240Q511 172 482 116T401 26T284 -8Q240 -8 200 9T128 62V-209H78ZM278 38Q331 38 372 64T437 135T461 239Q461 298 437 343T371 415T278
441Q230 441 191 422T128 368V112Q152 78 191 58T278 38Z" />
<glyph unicode="q" horiz-adv-x="567" d="M439 -209V65Q409 28 369 10T281 -8Q217 -8 166 25T86 114T56 239Q56 308 85 364T166 453T283 487Q327 487 367 470T439 417V481H489V-209H439ZM289 38Q337 38 376 57T439 111V367Q415 401 376 421T289 441Q237 441 196
415T130 344T106 240Q106 182 130 136T196 64T289 38Z" />
<glyph unicode="r" horiz-adv-x="328" d="M78 0V481H128V390Q147 437 182 463T263 489Q274 489 285 488T306 484V437Q297 440 285 441T262 443Q215 443 181 416T128 336V0H78Z" />
<glyph unicode="s" horiz-adv-x="436" d="M216 -10Q161 -10 114 10T30 64L60 100Q101 66 136 50T215 34Q274 34 312 61T351 134Q351 166 328 186T253 217L177 230Q107 242 75 272T43 352Q43 393 65 424T125 472T211 489Q259 489 301 475T388 428L362 389Q324 416
287 430T211 445Q156 445 124 422T91 355Q91 323 111 304T183 276L260 262Q334 249 366 217T399 135Q399 93 375 60T309 9T216 -10Z" />
<glyph unicode="t" horiz-adv-x="352" d="M241 -10Q185 -10 157 18T128 97V438H27V481H128V612L178 625V481H319V438H178V113Q178 72 194 54T250 36Q272 36 286 39T319 50V3Q299 -4 280 -7T241 -10Z" />
<glyph unicode="u" horiz-adv-x="535" d="M254 -8Q201 -8 161 15T99 79T76 174V481H126V188Q126 118 164 77T268 36Q312 36 348 57T407 120V481H457V0H407V77Q380 36 342 14T254 -8Z" />
<glyph unicode="v" horiz-adv-x="477" d="M215 0L17 481H70L240 63L407 481H460L262 0H215Z" />
<glyph unicode="w" horiz-adv-x="676" d="M164 0L31 481H80L191 71L314 481H361L486 71L596 481H645L512 0H463L337 412L214 0H164Z" />
<glyph unicode="x" horiz-adv-x="460" d="M14 0L199 249L25 481H84L230 285L375 481H431L259 250L446 0H387L228 215L70 0H14Z" />
<glyph unicode="y" horiz-adv-x="475" d="M89 -219Q69 -219 47 -212V-165Q60 -169 68 -171T85 -173Q111 -173 129 -158T162 -105L207 3L18 481H74L234 64L401 481H457L206 -124Q191 -159 175 -180T139 -210T89 -219Z" />
<glyph unicode="z" horiz-adv-x="445" d="M42 0V43L336 435H45V481H397V438L103 46H399V0H42Z" />
<glyph unicode="{" horiz-adv-x="378" d="M256 -219Q204 -219 172 -193T134 -122T149 -22L191 81Q216 141 195 181T120 222H46V269H120Q173 269 194 309T191 409L149 514Q127 570 133 614T172 685T256 711Q275 711 291 708T326 697L314 656Q299 661 286 664T255
667Q228 667 208 653T182 609T192 536L241 405Q256 365 250 333T223 278T173 245Q202 235 223 213T250 158T241 85L192 -44Q176 -88 181 -117T207 -160T255 -175Q272 -175 285 -172T314 -164L326 -205Q308 -212 292 -215T256 -219Z" />
<glyph unicode="|" horiz-adv-x="275" d="M114 -209V700H161V-209H114Z" />
<glyph unicode="}" horiz-adv-x="378" d="M122 705Q174 705 206 679T244 608T229 508L187 405Q162 345 183 305T258 264H332V217H258Q205 217 184 177T187 77L229 -28Q251 -84 245 -128T206 -199T122 -225Q103 -225 87 -222T52 -211L64 -170Q79 -175 92 -178T123
-181Q150 -181 170 -167T196 -123T186 -50L137 81Q122 121 128 153T155 208T205 241Q176 251 155 273T128 328T137 401L186 530Q202 574 197 603T171 646T123 661Q106 661 93 658T64 650L52 691Q70 698 86 701T122 705Z" />
<glyph unicode="~" horiz-adv-x="600" d="M113 307L72 312Q80 377 110 413T187 449Q205 449 225 443T274 419L348 380Q371 367 385 362T413 357Q475 357 487 452L528 446Q521 381 491 346T414 310Q395 310 375 317T326 339L253 378Q227 392 214 397T187 402Q126
402 113 307Z" />
<glyph unicode="&#xa0;" horiz-adv-x="238" />
<glyph unicode="&#xa1;" horiz-adv-x="206" d="M124 302L130 -209H76L82 302H124ZM103 509Q122 509 135 496T149 462Q149 443 136 430T103 416Q84 416 71 429T57 462Q57 482 70 495T103 509Z" />
<glyph unicode="&#xa2;" horiz-adv-x="515" d="M262 -120V-5Q203 3 157 37T83 124T56 243Q56 308 83 361T156 449T262 490V605H306V492Q353 489 395 471T471 420L440 383Q415 410 379 426T306 446V39Q343 42 379 58T440 102L471 65Q438 33 396 15T306 -7V-120H262ZM106
243Q106 192 126 149T181 78T262 42V443Q217 436 182 408T126 337T106 243Z" />
<glyph unicode="&#xa3;" horiz-adv-x="605" d="M440 -25Q425 -25 409 -23T375 -17L194 27Q178 31 165 32T140 34Q79 34 50 -25L14 0Q40 44 74 63T152 81Q182 103 182 151Q182 156 181 165T175 203T159 294H53V338H152Q143 392 139 422T133 468T131 497Q131 564
153 612T220 685T326 711Q408 711 460 667T531 538L484 525Q471 593 430 629T326 665Q255 665 218 620T181 497Q181 488 182 474T187 429T202 338H405V294H210Q220 237 224 210T229 173T230 156Q230 102 202 74L386 29Q401 25 414 24T441 22Q515 22 552 89L591
64Q541 -25 440 -25Z" />
<glyph unicode="&#xa4;" horiz-adv-x="632" d="M59 69L30 100L124 195Q97 228 82 269T67 360Q67 409 82 450T124 525L30 620L59 651L152 557Q185 586 227 602T316 618Q363 618 405 602T480 557L573 651L602 620L508 525Q535 492 550 451T565 360Q565 311 550 270T508
195L602 100L573 69L480 163Q447 135 405 119T316 102Q269 102 227 118T152 163L59 69ZM316 150Q372 150 416 178T487 253T513 360Q513 419 487 466T417 542T316 570Q261 570 216 542T145 467T119 360Q119 301 145 254T216 178T316 150Z" />
<glyph unicode="&#xa5;" horiz-adv-x="621" d="M284 0V138H102V182H284V266H102V310H272L15 700H76L312 336L548 700H606L350 310H518V266H336V182H518V138H336V0H284Z" />
<glyph unicode="&#xa6;" horiz-adv-x="275" d="M114 288V700H161V288H114ZM114 -209V203H161V-209H114Z" />
<glyph unicode="&#xa7;" horiz-adv-x="562" d="M282 -49Q197 -49 119 -3L140 39Q176 17 212 7T282 -3Q332 -3 361 19T390 82Q390 115 371 137T312 171L207 208Q137 233 107 264T77 349Q77 396 107 428T188 471Q126 510 126 581Q126 640 168 675T282 711Q323 711
365 700T445 665L424 623Q388 645 352 655T282 665Q232 665 203 643T174 580Q174 547 193 525T252 491L357 454Q428 429 457 398T487 313Q487 266 457 234T376 191Q438 152 438 81Q438 23 396 -13T282 -49ZM329 214Q380 219 409 245T439 312Q439 346 417 370T346
410L238 447Q237 447 237 447T235 448Q184 444 155 418T125 350Q125 316 147 293T218 252L326 215Q327 215 327 215T329 214Z" />
<glyph unicode="&#xa8;" horiz-adv-x="600" d="M197 607Q178 607 165 620T151 654Q151 673 164 686T197 700Q216 700 229 687T243 654Q243 634 230 621T197 607ZM403 607Q384 607 371 620T357 654Q357 673 370 686T403 700Q422 700 435 687T449 654Q449 634 436
621T403 607Z" />
<glyph unicode="&#xa9;" horiz-adv-x="802" d="M412 167Q365 167 327 191T266 257T243 350Q243 401 265 442T326 508T412 533Q449 533 483 519T542 478L515 446Q495 468 468 480T413 493Q377 493 348 474T302 423T285 350Q285 310 302 278T348 226T413 207Q441
207 468 219T515 254L542 222Q517 196 483 182T412 167ZM401 -11Q330 -11 268 16T159 92T86 207T59 350Q59 427 85 493T159 608T268 684T401 711Q472 711 534 684T643 608T716 493T743 350Q743 273 717 207T643 92T534 16T401 -11ZM401 26Q465 26 520 51T616 120T680
224T703 350Q703 417 680 476T616 579T520 649T401 674Q337 674 282 649T186 580T122 476T99 350Q99 283 122 224T186 121T282 51T401 26Z" />
<glyph unicode="&#xaa;" horiz-adv-x="397" d="M174 324Q113 324 74 355T35 436Q35 488 76 519T185 550Q244 550 297 519V577Q297 672 194 672Q167 672 139 664T76 639L59 674Q97 694 130 702T197 711Q267 711 304 678T341 583V331H297V374Q245 324 174 324ZM180
361Q215 361 244 373T297 408V482Q273 499 245 507T182 515Q136 515 108 494T79 438Q79 404 107 383T180 361Z" />
<glyph unicode="&#xab;" horiz-adv-x="593" d="M268 0L48 241L271 481H327L110 243L327 0H268ZM474 0L254 241L477 481H533L316 243L533 0H474Z" />
<glyph unicode="&#xac;" horiz-adv-x="601" d="M470 0V258H81V303H520V0H470Z" />
<glyph unicode="&#xad;" horiz-adv-x="452" d="M64 258V302H388V258H64Z" />
<glyph unicode="&#xae;" horiz-adv-x="494" d="M247 313Q194 313 152 339T84 411T59 512Q59 568 84 613T151 684T247 711Q300 711 342 685T410 613T435 512Q435 456 410 411T343 340T247 313ZM247 343Q293 343 328 365T383 425T404 512Q404 561 384 599T328 659T247
681Q202 681 167 659T111 599T90 512Q90 464 110 426T166 365T247 343ZM186 419V607H254Q282 607 297 592T313 549Q313 512 279 497L325 419H294L252 491H214V419H186ZM251 582H214V515H251Q286 515 286 549Q286 582 251 582Z" />
<glyph unicode="&#xaf;" horiz-adv-x="600" d="M170 607V647H430V607H170Z" />
<glyph unicode="&#xb0;" horiz-adv-x="402" d="M201 431Q162 431 131 450T81 502T62 571Q62 609 80 640T130 691T201 711Q240 711 271 692T321 641T340 571Q340 534 322 502T272 451T201 431ZM201 471Q241 471 270 500T299 572Q299 613 270 642T201 671Q161 671
132 642T103 572Q103 530 132 501T201 471Z" />
<glyph unicode="&#xb1;" horiz-adv-x="600" d="M109 -1V44H490V-1H109ZM277 164V348H109V393H277V574H322V393H490V348H322V164H277Z" />
<glyph unicode="&#xb2;" horiz-adv-x="285" d="M26 350V380L163 508Q194 537 206 557T218 602Q218 632 196 651T140 670Q115 670 93 660T43 625L20 655Q50 681 80 693T141 705Q192 705 225 677T258 605Q258 574 243 550T190 489L81 385H263V350H26Z" />
<glyph unicode="&#xb3;" horiz-adv-x="307" d="M148 345Q76 345 20 388L42 419Q68 400 94 390T148 380Q188 380 212 399T237 446Q237 475 213 492T145 510H115V541H142Q180 541 202 561T224 608Q224 634 202 652T146 670Q119 670 96 660T48 630L25 660Q52 682
82 693T147 705Q197 705 230 678T264 610Q264 585 245 563T191 529Q231 522 254 499T277 446Q277 402 241 374T148 345Z" />
<glyph unicode="&#xb4;" horiz-adv-x="600" d="M262 579L367 695H442L310 579H262Z" />
<glyph unicode="&#xb5;" horiz-adv-x="537" d="M78 -209V481H128V187Q128 118 167 77T271 36Q315 36 351 56T409 114V481H459V0H409V73Q381 33 343 13T257 -8Q176 -8 128 42V-209H78Z" />
<glyph unicode="&#xb6;" horiz-adv-x="633" d="M318 0V302H257Q197 302 152 327T81 398T55 502Q55 561 80 605T151 675T255 700H541V0H489V302H370V0H318ZM370 349H489V653H370V349ZM259 349H318V653H259Q191 653 149 612T107 502Q107 432 149 391T259 349Z" />
<glyph unicode="&#xb7;" horiz-adv-x="250" d="M125 237Q106 237 93 250T79 284Q79 303 92 316T125 330Q144 330 157 317T171 284Q171 264 158 251T125 237Z" />
<glyph unicode="&#xb8;" horiz-adv-x="600" d="M284 -235Q253 -235 227 -227T181 -201L203 -175Q238 -204 283 -204Q315 -204 333 -189T352 -149Q352 -123 332 -110T276 -96H251L276 0H309L294 -68Q338 -69 364 -90T390 -147Q390 -185 361 -210T284 -235Z" />
<glyph unicode="&#xb9;" horiz-adv-x="154" d="M81 350V657L21 631V668L96 700H121V350H81Z" />
<glyph unicode="&#xba;" horiz-adv-x="458" d="M229 323Q177 323 134 349T66 419T41 517Q41 572 66 615T134 685T229 711Q282 711 324 685T392 616T417 517Q417 463 392 419T325 349T229 323ZM229 364Q270 364 302 384T354 440T373 517Q373 560 354 594T303 649T229
670Q189 670 156 650T104 595T85 517Q85 475 104 440T156 385T229 364Z" />
<glyph unicode="&#xbb;" horiz-adv-x="592" d="M324 481L544 240L321 0H265L482 238L265 481H324ZM119 481L339 240L116 0H60L277 238L60 481H119Z" />
<glyph unicode="&#xbc;" horiz-adv-x="580" d="M480 0V92H280V122L477 350H520V127H562V92H520V0H480ZM331 127H480V299L331 127ZM81 350V657L21 631V668L96 700H121V350H81ZM289 0L684 700H729L334 0H289Z" />
<glyph unicode="&#xbd;" horiz-adv-x="616" d="M81 350V657L21 631V668L96 700H121V350H81ZM289 0L684 700H729L334 0H289ZM357 0V30L494 158Q525 187 537 207T549 252Q549 282 527 301T471 320Q446 320 424 310T374 275L351 305Q381 331 411 343T472 355Q523
355 556 327T589 255Q589 224 574 200T521 139L412 35H594V0H357Z" />
<glyph unicode="&#xbe;" horiz-adv-x="674" d="M574 0V92H374V122L571 350H614V127H656V92H614V0H574ZM425 127H574V299L425 127ZM148 345Q76 345 20 388L42 419Q68 400 94 390T148 380Q188 380 212 399T237 446Q237 475 213 492T145 510H115V541H142Q180 541
202 561T224 608Q224 634 202 652T146 670Q119 670 96 660T48 630L25 660Q52 682 82 693T147 705Q197 705 230 678T264 610Q264 585 245 563T191 529Q231 522 254 499T277 446Q277 402 241 374T148 345ZM127 0L522 700H567L172 0H127Z" />
<glyph unicode="&#xbf;" horiz-adv-x="505" d="M309 291Q311 251 305 220T281 162T229 111L190 82Q148 50 128 22T108 -47Q108 -82 128 -110T181 -154T257 -171Q306 -171 348 -147T428 -76L466 -111Q421 -164 368 -191T255 -219Q199 -219 155 -197T84 -136T58
-47Q58 -10 69 17T105 69T167 122L202 148Q241 176 254 211T263 291H309ZM286 500Q303 500 316 488T329 457Q329 438 316 426T286 414Q269 414 256 426T243 457Q243 476 256 488T286 500Z" />
<glyph unicode="&#xc0;" horiz-adv-x="639" d="M11 0L287 700H352L628 0H574L483 234H155L65 0H11ZM172 276H467L319 656L172 276ZM309 798L177 914H254L359 798H309Z" />
<glyph unicode="&#xc1;" horiz-adv-x="639" d="M11 0L287 700H352L628 0H574L483 234H155L65 0H11ZM172 276H467L319 656L172 276ZM282 798L387 914H462L330 798H282Z" />
<glyph unicode="&#xc2;" horiz-adv-x="639" d="M11 0L287 700H352L628 0H574L483 234H155L65 0H11ZM172 276H467L319 656L172 276ZM417 793L319 881L223 793H181L291 914H349L459 793H417Z" />
<glyph unicode="&#xc3;" horiz-adv-x="639" d="M11 0L287 700H352L628 0H574L483 234H155L65 0H11ZM172 276H467L319 656L172 276ZM200 796L159 803Q172 852 196 875T251 898Q280 898 304 883T351 853T394 838Q411 838 421 852T440 901L481 894Q468 845 445 822T393
799Q365 799 341 814T295 844T251 859Q232 859 220 845T200 796Z" />
<glyph unicode="&#xc4;" horiz-adv-x="639" d="M11 0L287 700H352L628 0H574L483 234H155L65 0H11ZM172 276H467L319 656L172 276ZM217 826Q198 826 185 839T171 873Q171 892 184 905T217 919Q236 919 249 906T263 873Q263 853 250 840T217 826ZM423 826Q404 826
391 839T377 873Q377 892 390 905T423 919Q442 919 455 906T469 873Q469 853 456 840T423 826Z" />
<glyph unicode="&#xc5;" horiz-adv-x="639" d="M11 0L287 700H352L628 0H574L483 234H155L65 0H11ZM172 276H467L319 656L172 276ZM320 786Q290 786 266 800T227 839T212 894Q212 924 226 948T265 987T320 1002Q351 1002 375 988T413 949T428 894Q428 864 414
840T375 801T320 786ZM320 820Q352 820 372 841T393 894Q393 926 373 947T320 968Q289 968 268 947T247 894Q247 863 268 842T320 820Z" />
<glyph unicode="&#xc6;" horiz-adv-x="901" d="M11 0L287 700H851V653H371L479 377H724V330H498L609 47H855V0H574L483 234H155L65 0H11ZM172 276H467L319 656L172 276Z" />
<glyph unicode="&#xc7;" horiz-adv-x="728" d="M392 -235Q361 -235 335 -227T289 -201L311 -175Q346 -204 391 -204Q423 -204 441 -189T460 -149Q460 -123 440 -110T384 -96H359L381 -10Q313 -5 255 24T153 102T85 214T60 350Q60 426 86 491T160 606T270 683T406
711Q458 711 505 699T595 662T670 602L636 563Q596 610 535 636T406 663Q343 663 290 639T196 573T134 473T112 350Q112 284 134 227T196 128T289 61T406 37Q474 37 535 64T636 137L670 98Q621 46 556 19T415 -11L402 -68Q446 -69 472 -90T498 -147Q498 -185 469
-210T392 -235Z" />
<glyph unicode="&#xc8;" horiz-adv-x="606" d="M92 0V700H556V653H144V377H429V330H144V47H560V0H92ZM326 798L194 914H271L376 798H326Z" />
<glyph unicode="&#xc9;" horiz-adv-x="606" d="M92 0V700H556V653H144V377H429V330H144V47H560V0H92ZM299 798L404 914H479L347 798H299Z" />
<glyph unicode="&#xca;" horiz-adv-x="606" d="M92 0V700H556V653H144V377H429V330H144V47H560V0H92ZM434 793L336 881L240 793H198L308 914H366L476 793H434Z" />
<glyph unicode="&#xcb;" horiz-adv-x="606" d="M92 0V700H556V653H144V377H429V330H144V47H560V0H92ZM234 826Q215 826 202 839T188 873Q188 892 201 905T234 919Q253 919 266 906T280 873Q280 853 267 840T234 826ZM440 826Q421 826 408 839T394 873Q394 892
407 905T440 919Q459 919 472 906T486 873Q486 853 473 840T440 826Z" />
<glyph unicode="&#xcc;" horiz-adv-x="236" d="M92 0V700H144V0H92ZM107 798L-25 914H52L157 798H107Z" />
<glyph unicode="&#xcd;" horiz-adv-x="236" d="M92 0V700H144V0H92ZM80 798L185 914H260L128 798H80Z" />
<glyph unicode="&#xce;" horiz-adv-x="236" d="M92 0V700H144V0H92ZM215 793L117 881L21 793H-21L89 914H147L257 793H215Z" />
<glyph unicode="&#xcf;" horiz-adv-x="236" d="M92 0V700H144V0H92ZM15 826Q-4 826 -17 839T-31 873Q-31 892 -18 905T15 919Q34 919 47 906T61 873Q61 853 48 840T15 826ZM221 826Q202 826 189 839T175 873Q175 892 188 905T221 919Q240 919 253 906T267 873Q267
853 254 840T221 826Z" />
<glyph unicode="&#xd0;" horiz-adv-x="720" d="M92 0V329H26V373H92V700H310Q388 700 452 674T563 600T635 489T660 350Q660 275 635 211T564 100T453 27T310 0H92ZM144 47H316Q399 47 465 86T569 195T608 350Q608 437 570 505T465 613T316 653H144V373H350V329H144V47Z" />
<glyph unicode="&#xd1;" horiz-adv-x="726" d="M92 0V700H150L585 83V700H634V0H586L141 631V0H92ZM236 796L195 803Q208 852 232 875T287 898Q316 898 340 883T387 853T430 838Q447 838 457 852T476 901L517 894Q504 845 481 822T429 799Q401 799 377 814T331
844T287 859Q268 859 256 845T236 796Z" />
<glyph unicode="&#xd2;" horiz-adv-x="808" d="M404 -11Q332 -11 270 16T160 93T87 208T60 350Q60 426 86 491T160 606T269 683T404 711Q476 711 538 684T648 607T721 492T748 350Q748 274 722 209T648 94T539 17T404 -11ZM404 37Q466 37 519 61T612 127T674 227T696
350Q696 416 674 473T612 572T519 639T404 663Q342 663 289 639T196 573T134 473T112 350Q112 284 134 227T196 128T289 61T404 37ZM393 798L261 914H338L443 798H393Z" />
<glyph unicode="&#xd3;" horiz-adv-x="808" d="M404 -11Q332 -11 270 16T160 93T87 208T60 350Q60 426 86 491T160 606T269 683T404 711Q476 711 538 684T648 607T721 492T748 350Q748 274 722 209T648 94T539 17T404 -11ZM404 37Q466 37 519 61T612 127T674 227T696
350Q696 416 674 473T612 572T519 639T404 663Q342 663 289 639T196 573T134 473T112 350Q112 284 134 227T196 128T289 61T404 37ZM366 798L471 914H546L414 798H366Z" />
<glyph unicode="&#xd4;" horiz-adv-x="808" d="M404 -11Q332 -11 270 16T160 93T87 208T60 350Q60 426 86 491T160 606T269 683T404 711Q476 711 538 684T648 607T721 492T748 350Q748 274 722 209T648 94T539 17T404 -11ZM404 37Q466 37 519 61T612 127T674 227T696
350Q696 416 674 473T612 572T519 639T404 663Q342 663 289 639T196 573T134 473T112 350Q112 284 134 227T196 128T289 61T404 37ZM501 793L403 881L307 793H265L375 914H433L543 793H501Z" />
<glyph unicode="&#xd5;" horiz-adv-x="808" d="M404 -11Q332 -11 270 16T160 93T87 208T60 350Q60 426 86 491T160 606T269 683T404 711Q476 711 538 684T648 607T721 492T748 350Q748 274 722 209T648 94T539 17T404 -11ZM404 37Q466 37 519 61T612 127T674 227T696
350Q696 416 674 473T612 572T519 639T404 663Q342 663 289 639T196 573T134 473T112 350Q112 284 134 227T196 128T289 61T404 37ZM284 796L243 803Q256 852 280 875T335 898Q364 898 388 883T435 853T478 838Q495 838 505 852T524 901L565 894Q552 845 529 822T477
799Q449 799 425 814T379 844T335 859Q316 859 304 845T284 796Z" />
<glyph unicode="&#xd6;" horiz-adv-x="808" d="M404 -11Q332 -11 270 16T160 93T87 208T60 350Q60 426 86 491T160 606T269 683T404 711Q476 711 538 684T648 607T721 492T748 350Q748 274 722 209T648 94T539 17T404 -11ZM404 37Q466 37 519 61T612 127T674 227T696
350Q696 416 674 473T612 572T519 639T404 663Q342 663 289 639T196 573T134 473T112 350Q112 284 134 227T196 128T289 61T404 37ZM301 826Q282 826 269 839T255 873Q255 892 268 905T301 919Q320 919 333 906T347 873Q347 853 334 840T301 826ZM507 826Q488 826
475 839T461 873Q461 892 474 905T507 919Q526 919 539 906T553 873Q553 853 540 840T507 826Z" />
<glyph unicode="&#xd7;" horiz-adv-x="600" d="M149 170L121 200L270 360L121 519L150 550L300 391L448 550L478 519L329 361L479 201L448 170L299 329L149 170Z" />
<glyph unicode="&#xd8;" horiz-adv-x="808" d="M404 -11Q345 -11 292 8T195 61L145 0H88L163 91Q115 140 88 207T60 350Q60 426 86 491T160 606T269 683T404 711Q463 711 516 692T613 639L663 700H720L645 609Q693 560 720 494T748 350Q748 274 722 209T648 94T539
17T404 -11ZM194 129L581 601Q545 630 500 646T404 663Q342 663 289 639T196 573T134 473T112 350Q112 285 134 229T194 129ZM404 37Q466 37 519 61T612 127T674 227T696 350Q696 415 674 471T614 571L227 99Q263 70 308 54T404 37Z" />
<glyph unicode="&#xd9;" horiz-adv-x="702" d="M351 -11Q270 -11 209 24T113 128T78 294V700H130V294Q130 212 158 155T237 67T351 37Q416 37 465 67T543 154T572 294V700H624V294Q624 197 590 129T494 25T351 -11ZM335 798L203 914H280L385 798H335Z" />
<glyph unicode="&#xda;" horiz-adv-x="702" d="M351 -11Q270 -11 209 24T113 128T78 294V700H130V294Q130 212 158 155T237 67T351 37Q416 37 465 67T543 154T572 294V700H624V294Q624 197 590 129T494 25T351 -11ZM308 798L413 914H488L356 798H308Z" />
<glyph unicode="&#xdb;" horiz-adv-x="702" d="M351 -11Q270 -11 209 24T113 128T78 294V700H130V294Q130 212 158 155T237 67T351 37Q416 37 465 67T543 154T572 294V700H624V294Q624 197 590 129T494 25T351 -11ZM443 793L345 881L249 793H207L317 914H375L485
793H443Z" />
<glyph unicode="&#xdc;" horiz-adv-x="702" d="M351 -11Q270 -11 209 24T113 128T78 294V700H130V294Q130 212 158 155T237 67T351 37Q416 37 465 67T543 154T572 294V700H624V294Q624 197 590 129T494 25T351 -11ZM243 826Q224 826 211 839T197 873Q197 892 210
905T243 919Q262 919 275 906T289 873Q289 853 276 840T243 826ZM449 826Q430 826 417 839T403 873Q403 892 416 905T449 919Q468 919 481 906T495 873Q495 853 482 840T449 826Z" />
<glyph unicode="&#xdd;" horiz-adv-x="621" d="M284 0V291L15 700H76L312 336L548 700H606L336 289V0H284ZM272 798L377 914H452L320 798H272Z" />
<glyph unicode="&#xde;" horiz-adv-x="639" d="M92 0V700H144V552H367Q434 552 482 527T557 457T584 351Q584 291 558 246T483 175T367 150H144V0H92ZM144 197H364Q444 197 488 239T532 351Q532 421 488 463T364 505H144V197Z" />
<glyph unicode="&#xdf;" horiz-adv-x="602" d="M398 -10Q300 -10 233 53L267 87Q320 34 401 34Q452 34 484 57T517 126Q517 163 498 184T440 220L382 241Q336 258 311 273T275 308T264 356Q264 392 281 414T323 453T374 484T416 521T433 577Q433 625 394 658T291
691Q209 691 168 640T127 502V0H77V503Q77 574 102 626T176 708T290 737Q348 737 391 716T457 658T481 575Q481 535 464 509T422 464T372 432T329 400T312 358Q312 333 327 319T391 287L450 265Q512 242 538 212T565 127Q565 66 519 28T398 -10Z" />
<glyph unicode="&#xe0;" horiz-adv-x="512" d="M228 -10Q178 -10 138 8T75 60T52 138Q52 183 75 215T139 264T230 282Q276 282 315 272T386 239V314Q386 381 352 414T254 447Q219 447 184 437T106 403L86 444Q176 489 256 489Q341 489 388 447T435 323V0H386V59Q355
26 315 8T228 -10ZM101 139Q101 90 138 61T234 32Q281 32 318 49T386 98V198Q354 220 318 230T235 240Q177 240 139 213T101 139ZM494 579L362 695H439L544 579H494Z" />
<glyph unicode="&#xe1;" horiz-adv-x="512" d="M228 -10Q178 -10 138 8T75 60T52 138Q52 183 75 215T139 264T230 282Q276 282 315 272T386 239V314Q386 381 352 414T254 447Q219 447 184 437T106 403L86 444Q176 489 256 489Q341 489 388 447T435 323V0H386V59Q355
26 315 8T228 -10ZM101 139Q101 90 138 61T234 32Q281 32 318 49T386 98V198Q354 220 318 230T235 240Q177 240 139 213T101 139ZM467 579L572 695H647L515 579H467Z" />
<glyph unicode="&#xe2;" horiz-adv-x="512" d="M228 -10Q178 -10 138 8T75 60T52 138Q52 183 75 215T139 264T230 282Q276 282 315 272T386 239V314Q386 381 352 414T254 447Q219 447 184 437T106 403L86 444Q176 489 256 489Q341 489 388 447T435 323V0H386V59Q355
26 315 8T228 -10ZM101 139Q101 90 138 61T234 32Q281 32 318 49T386 98V198Q354 220 318 230T235 240Q177 240 139 213T101 139ZM602 574L504 662L408 574H366L476 695H534L644 574H602Z" />
<glyph unicode="&#xe3;" horiz-adv-x="512" d="M228 -10Q178 -10 138 8T75 60T52 138Q52 183 75 215T139 264T230 282Q276 282 315 272T386 239V314Q386 381 352 414T254 447Q219 447 184 437T106 403L86 444Q176 489 256 489Q341 489 388 447T435 323V0H386V59Q355
26 315 8T228 -10ZM101 139Q101 90 138 61T234 32Q281 32 318 49T386 98V198Q354 220 318 230T235 240Q177 240 139 213T101 139ZM385 577L344 584Q357 633 381 656T436 679Q465 679 489 664T536 634T579 619Q596 619 606 633T625 682L666 675Q653 626 630 603T578
580Q550 580 526 595T480 625T436 640Q417 640 405 626T385 577Z" />
<glyph unicode="&#xe4;" horiz-adv-x="512" d="M228 -10Q178 -10 138 8T75 60T52 138Q52 183 75 215T139 264T230 282Q276 282 315 272T386 239V314Q386 381 352 414T254 447Q219 447 184 437T106 403L86 444Q176 489 256 489Q341 489 388 447T435 323V0H386V59Q355
26 315 8T228 -10ZM101 139Q101 90 138 61T234 32Q281 32 318 49T386 98V198Q354 220 318 230T235 240Q177 240 139 213T101 139ZM402 607Q383 607 370 620T356 654Q356 673 369 686T402 700Q421 700 434 687T448 654Q448 634 435 621T402 607ZM608 607Q589 607
576 620T562 654Q562 673 575 686T608 700Q627 700 640 687T654 654Q654 634 641 621T608 607Z" />
<glyph unicode="&#xe5;" horiz-adv-x="512" d="M228 -10Q178 -10 138 8T75 60T52 138Q52 183 75 215T139 264T230 282Q276 282 315 272T386 239V314Q386 381 352 414T254 447Q219 447 184 437T106 403L86 444Q176 489 256 489Q341 489 388 447T435 323V0H386V59Q355
26 315 8T228 -10ZM101 139Q101 90 138 61T234 32Q281 32 318 49T386 98V198Q354 220 318 230T235 240Q177 240 139 213T101 139ZM505 567Q475 567 451 581T412 620T397 675Q397 705 411 729T450 768T505 783Q536 783 560 769T598 730T613 675Q613 645 599 621T560
582T505 567ZM505 601Q537 601 557 622T578 675Q578 707 558 728T505 749Q474 749 453 728T432 675Q432 644 453 623T505 601Z" />
<glyph unicode="&#xe6;" horiz-adv-x="882" d="M233 -10Q182 -10 142 8T79 60T56 138Q56 183 79 215T143 264T234 282Q328 282 390 239V314Q390 381 356 414T258 447Q223 447 188 437T110 403L90 444Q180 489 260 489Q328 489 371 463T431 383Q461 432 508 460T612
489Q673 489 722 458T800 372T829 250V231H440Q442 175 467 131T533 61T626 36Q666 36 704 50T768 89L798 52Q758 21 716 6T624 -10Q565 -10 516 18T434 92Q397 43 347 17T233 -10ZM442 272H778Q774 321 751 359T692 420T612 443Q569 443 533 421T473 361T442 272ZM238
32Q295 32 338 57T415 128Q400 159 395 195Q361 218 323 229T240 240Q178 240 142 213T105 139Q105 90 142 61T238 32Z" />
<glyph unicode="&#xe7;" horiz-adv-x="501" d="M277 -235Q246 -235 220 -227T174 -201L196 -175Q231 -204 276 -204Q308 -204 326 -189T345 -149Q345 -123 325 -110T269 -96H244L267 -9Q207 -2 160 32T84 120T56 240Q56 310 87 366T172 456T291 489Q341 489 388
471T471 417L440 380Q412 409 373 426T293 443Q240 443 198 416T131 343T106 240Q106 184 130 138T197 64T293 36Q333 36 372 53T440 99L471 62Q437 29 393 11T300 -10L287 -68Q331 -69 357 -90T383 -147Q383 -185 354 -210T277 -235Z" />
<glyph unicode="&#xe8;" horiz-adv-x="548" d="M290 -10Q224 -10 171 23T87 112T56 240Q56 311 86 367T166 456T278 489Q339 489 388 458T466 372T495 250V231H106Q108 175 133 131T199 61T292 36Q332 36 370 50T434 89L464 52Q424 21 382 6T290 -10ZM108 272H444Q440
321 417 359T358 420T278 443Q235 443 199 421T139 361T108 272ZM522 579L390 695H467L572 579H522Z" />
<glyph unicode="&#xe9;" horiz-adv-x="548" d="M290 -10Q224 -10 171 23T87 112T56 240Q56 311 86 367T166 456T278 489Q339 489 388 458T466 372T495 250V231H106Q108 175 133 131T199 61T292 36Q332 36 370 50T434 89L464 52Q424 21 382 6T290 -10ZM108 272H444Q440
321 417 359T358 420T278 443Q235 443 199 421T139 361T108 272ZM495 579L600 695H675L543 579H495Z" />
<glyph unicode="&#xea;" horiz-adv-x="548" d="M290 -10Q224 -10 171 23T87 112T56 240Q56 311 86 367T166 456T278 489Q339 489 388 458T466 372T495 250V231H106Q108 175 133 131T199 61T292 36Q332 36 370 50T434 89L464 52Q424 21 382 6T290 -10ZM108 272H444Q440
321 417 359T358 420T278 443Q235 443 199 421T139 361T108 272ZM630 574L532 662L436 574H394L504 695H562L672 574H630Z" />
<glyph unicode="&#xeb;" horiz-adv-x="548" d="M290 -10Q224 -10 171 23T87 112T56 240Q56 311 86 367T166 456T278 489Q339 489 388 458T466 372T495 250V231H106Q108 175 133 131T199 61T292 36Q332 36 370 50T434 89L464 52Q424 21 382 6T290 -10ZM108 272H444Q440
321 417 359T358 420T278 443Q235 443 199 421T139 361T108 272ZM430 607Q411 607 398 620T384 654Q384 673 397 686T430 700Q449 700 462 687T476 654Q476 634 463 621T430 607ZM636 607Q617 607 604 620T590 654Q590 673 603 686T636 700Q655 700 668 687T682
654Q682 634 669 621T636 607Z" />
<glyph unicode="&#xec;" horiz-adv-x="206" d="M78 0V481H128V0H78ZM92 579L-40 695H37L142 579H92Z" />
<glyph unicode="&#xed;" horiz-adv-x="206" d="M78 0V481H128V0H78ZM65 579L170 695H245L113 579H65Z" />
<glyph unicode="&#xee;" horiz-adv-x="206" d="M78 0V481H128V0H78ZM200 574L102 662L6 574H-36L74 695H132L242 574H200Z" />
<glyph unicode="&#xef;" horiz-adv-x="206" d="M78 0V481H128V0H78ZM0 607Q-19 607 -32 620T-46 654Q-46 673 -33 686T0 700Q19 700 32 687T46 654Q46 634 33 621T0 607ZM206 607Q187 607 174 620T160 654Q160 673 173 686T206 700Q225 700 238 687T252 654Q252
634 239 621T206 607Z" />
<glyph unicode="&#xf0;" horiz-adv-x="589" d="M289 -10Q224 -10 172 23T88 112T57 239Q57 310 86 364T167 449T282 480Q350 480 403 445T482 354Q473 437 445 503T366 617L268 553L246 587L334 644Q311 661 284 675T225 699L241 737Q279 725 311 708T372 668L483
739L504 706L403 641Q465 578 497 488T529 281Q529 194 499 129T414 27T289 -10ZM291 36Q343 36 384 62T450 134T475 236Q475 293 451 338T385 409T291 436Q239 436 198 410T132 338T107 236Q107 180 131 135T197 63T291 36Z" />
<glyph unicode="&#xf1;" horiz-adv-x="535" d="M78 0V481H128V404Q155 445 193 467T281 489Q334 489 374 466T436 402T459 307V0H409V293Q409 363 371 404T267 445Q224 445 188 424T128 361V0H78ZM402 577L361 584Q374 633 398 656T453 679Q482 679 506 664T553
634T596 619Q613 619 623 633T642 682L683 675Q670 626 647 603T595 580Q567 580 543 595T497 625T453 640Q434 640 422 626T402 577Z" />
<glyph unicode="&#xf2;" horiz-adv-x="572" d="M286 -10Q221 -10 169 23T87 112T56 240Q56 311 86 367T169 456T286 489Q351 489 403 456T485 367T516 240Q516 169 486 113T403 23T286 -10ZM286 36Q338 36 378 62T442 135T466 240Q466 298 443 344T379 416T286
443Q235 443 194 417T130 344T106 240Q106 182 129 136T194 63T286 36ZM530 579L398 695H475L580 579H530Z" />
<glyph unicode="&#xf3;" horiz-adv-x="572" d="M286 -10Q221 -10 169 23T87 112T56 240Q56 311 86 367T169 456T286 489Q351 489 403 456T485 367T516 240Q516 169 486 113T403 23T286 -10ZM286 36Q338 36 378 62T442 135T466 240Q466 298 443 344T379 416T286
443Q235 443 194 417T130 344T106 240Q106 182 129 136T194 63T286 36ZM503 579L608 695H683L551 579H503Z" />
<glyph unicode="&#xf4;" horiz-adv-x="572" d="M286 -10Q221 -10 169 23T87 112T56 240Q56 311 86 367T169 456T286 489Q351 489 403 456T485 367T516 240Q516 169 486 113T403 23T286 -10ZM286 36Q338 36 378 62T442 135T466 240Q466 298 443 344T379 416T286
443Q235 443 194 417T130 344T106 240Q106 182 129 136T194 63T286 36ZM638 574L540 662L444 574H402L512 695H570L680 574H638Z" />
<glyph unicode="&#xf5;" horiz-adv-x="572" d="M286 -10Q221 -10 169 23T87 112T56 240Q56 311 86 367T169 456T286 489Q351 489 403 456T485 367T516 240Q516 169 486 113T403 23T286 -10ZM286 36Q338 36 378 62T442 135T466 240Q466 298 443 344T379 416T286
443Q235 443 194 417T130 344T106 240Q106 182 129 136T194 63T286 36ZM421 577L380 584Q393 633 417 656T472 679Q501 679 525 664T572 634T615 619Q632 619 642 633T661 682L702 675Q689 626 666 603T614 580Q586 580 562 595T516 625T472 640Q453 640 441 626T421
577Z" />
<glyph unicode="&#xf6;" horiz-adv-x="572" d="M286 -10Q221 -10 169 23T87 112T56 240Q56 311 86 367T169 456T286 489Q351 489 403 456T485 367T516 240Q516 169 486 113T403 23T286 -10ZM286 36Q338 36 378 62T442 135T466 240Q466 298 443 344T379 416T286
443Q235 443 194 417T130 344T106 240Q106 182 129 136T194 63T286 36ZM438 607Q419 607 406 620T392 654Q392 673 405 686T438 700Q457 700 470 687T484 654Q484 634 471 621T438 607ZM644 607Q625 607 612 620T598 654Q598 673 611 686T644 700Q663 700 676 687T690
654Q690 634 677 621T644 607Z" />
<glyph unicode="&#xf7;" horiz-adv-x="600" d="M300 490Q283 490 270 502T257 533Q257 551 270 563T300 576Q317 576 330 564T343 533Q343 515 330 503T300 490ZM300 142Q283 142 270 154T257 185Q257 203 270 215T300 228Q317 228 330 216T343 185Q343 167 330
155T300 142ZM109 335V380H490V335H109Z" />
<glyph unicode="&#xf8;" horiz-adv-x="572" d="M286 -10Q247 -10 212 2T148 37L118 0H63L118 67Q89 100 73 144T56 240Q56 311 86 367T169 456T286 489Q325 489 360 477T423 442L454 481H509L454 413Q483 380 499 336T516 240Q516 169 486 113T403 23T286 -10ZM148
105L393 406Q371 423 344 433T286 443Q235 443 194 417T130 344T106 240Q106 200 117 166T148 105ZM286 36Q338 36 378 62T442 135T466 240Q466 280 455 314T423 375L178 74Q201 56 228 46T286 36Z" />
<glyph unicode="&#xf9;" horiz-adv-x="535" d="M254 -8Q201 -8 161 15T99 79T76 174V481H126V188Q126 118 164 77T268 36Q312 36 348 57T407 120V481H457V0H407V77Q380 36 342 14T254 -8ZM511 579L379 695H456L561 579H511Z" />
<glyph unicode="&#xfa;" horiz-adv-x="535" d="M254 -8Q201 -8 161 15T99 79T76 174V481H126V188Q126 118 164 77T268 36Q312 36 348 57T407 120V481H457V0H407V77Q380 36 342 14T254 -8ZM484 579L589 695H664L532 579H484Z" />
<glyph unicode="&#xfb;" horiz-adv-x="535" d="M254 -8Q201 -8 161 15T99 79T76 174V481H126V188Q126 118 164 77T268 36Q312 36 348 57T407 120V481H457V0H407V77Q380 36 342 14T254 -8ZM619 574L521 662L425 574H383L493 695H551L661 574H619Z" />
<glyph unicode="&#xfc;" horiz-adv-x="535" d="M254 -8Q201 -8 161 15T99 79T76 174V481H126V188Q126 118 164 77T268 36Q312 36 348 57T407 120V481H457V0H407V77Q380 36 342 14T254 -8ZM419 607Q400 607 387 620T373 654Q373 673 386 686T419 700Q438 700 451
687T465 654Q465 634 452 621T419 607ZM625 607Q606 607 593 620T579 654Q579 673 592 686T625 700Q644 700 657 687T671 654Q671 634 658 621T625 607Z" />
<glyph unicode="&#xfd;" horiz-adv-x="475" d="M89 -219Q69 -219 47 -212V-165Q60 -169 68 -171T85 -173Q111 -173 129 -158T162 -105L207 3L18 481H74L234 64L401 481H457L206 -124Q191 -159 175 -180T139 -210T89 -219ZM451 579L556 695H631L499 579H451Z" />
<glyph unicode="&#xfe;" horiz-adv-x="567" d="M78 -209V725L128 737V414Q158 452 198 469T286 487Q350 487 401 454T481 365T511 240Q511 172 482 116T401 26T284 -8Q240 -8 200 9T128 62V-209H78ZM278 441Q230 441 191 422T128 368V112Q152 78 191 58T278 38Q331
38 372 64T437 135T461 239Q461 298 437 343T371 415T278 441Z" />
<glyph unicode="&#xff;" horiz-adv-x="475" d="M89 -219Q69 -219 47 -212V-165Q60 -169 68 -171T85 -173Q111 -173 129 -158T162 -105L207 3L18 481H74L234 64L401 481H457L206 -124Q191 -159 175 -180T139 -210T89 -219ZM386 607Q367 607 354 620T340 654Q340
673 353 686T386 700Q405 700 418 687T432 654Q432 634 419 621T386 607ZM592 607Q573 607 560 620T546 654Q546 673 559 686T592 700Q611 700 624 687T638 654Q638 634 625 621T592 607Z" />
<glyph unicode="&#x2013;" horiz-adv-x="546" d="M64 258V302H482V258H64Z" />
<glyph unicode="&#x2014;" horiz-adv-x="689" d="M64 258V302H625V258H64Z" />
<glyph unicode="&#x2018;" horiz-adv-x="250" d="M170 750L114 538H57L129 750H170Z" />
<glyph unicode="&#x2019;" horiz-adv-x="250" d="M80 538L136 750H193L121 538H80Z" />
<glyph unicode="&#x201a;" horiz-adv-x="250" d="M57 -152L113 60H170L98 -152H57Z" />
<glyph unicode="&#x201c;" horiz-adv-x="391" d="M193 750L137 538H80L152 750H193ZM334 750L278 538H221L293 750H334Z" />
<glyph unicode="&#x201d;" horiz-adv-x="383" d="M190 538L246 750H303L231 538H190ZM57 538L113 750H170L98 538H57Z" />
<glyph unicode="&#x201e;" horiz-adv-x="383" d="M190 -152L246 60H303L231 -152H190ZM57 -152L113 60H170L98 -152H57Z" />
<glyph unicode="&#x2022;" horiz-adv-x="334" d="M167 266Q129 266 101 293T72 361Q72 402 100 429T167 456Q205 456 233 429T262 361Q262 321 234 294T167 266Z" />
<glyph unicode="&#x2039;" horiz-adv-x="387" d="M268 0L48 241L271 481H327L110 243L327 0H268Z" />
<glyph unicode="&#x203a;" horiz-adv-x="387" d="M119 481L339 240L116 0H60L277 238L60 481H119Z" />
</font>
</defs>
</svg>
